Welcome Guest ( Log In | Register )

> Releases Upload / Добавление релизов

Добавить релиз тут / Click here to add release
Рекомендованные обменники / Recommended file shares

> Cochambre - Doom Über Alles (2020), Death Metal
post Feb 18 2020, 03:38:37
Post #1

Правь статус, ####!111
**************
Group: Металариец
Posts: 21,273
Releases: 14552
From: Г.Харьков
On Forums: 7 years 10 months
Thanks: 259681 time(s)
Unknown


(IMG:http://metalarea.org/images/audiocovers/2020_Feb/acov_tid333895_thumb.jpg)

*Artist: Cochambre
*Album: Doom Über Alles
*Year: 2020
*Genre: Death Metal
*Country: Spain (IMG:http://metalarea.org/forum/style_images/flags/Spain.png)
*Format: mp3@CBR320kbps
*Size: 95MB

Tracklist:
01. Flesh and Bones
02. Doom Uber Alles
03. Disturbing the Priest with a Hammer
04. Black Hole in His Head Full of Maggots
05. How Many Bodies
06. Stench of Life
07. I Hate
08. Bright Lights
09. Bloody Winter
10. Technocannibal
11. To End My Suffering
******************************
Total playing time: 39:51



Extended info



Technical info
(IMG:http://metalarea.org/images/spectrogram/2020_Feb/c1988eb2ca0bf9f7e70f7f48d4878d09.png)
Input File: 05. How Many Bodies.mp3
Channels : 2
Sample Rate : 44100
Precision : 16-bit
Duration : 00:03:58.64 = 10524200 samples = 17898.3 CDDA sectors
File Size : 9.93M
Bit Rate : 333k
Sample Encoding: MPEG audio (layer I, II or III)
Comments :
Title=How Many Bodies
Artist=Cochambre
Album=Doom Über Alles
Tracknumber=5/11
Year=2020



Register


Go to the top of the page
  Insert nick Quick quote
+Quote Post
 
Start new topic
Replies (1 - 2)
post Feb 18 2020, 08:22:57
Post #2

hearer & reader
**************
Group: Металариец
Posts: 8,509
Releases: 130
From: Moscow
On Forums: 12 years 6 months
Thanks: 8364 time(s)
Russian Federation


Как мне кажется, их FB полон пи*дежа. Типа, Аляска и первый магнитоальбом в 1978 году, за пару лет до рождения самого старого из них.
Есть у ребят чувство юмора.
А дес-н-ролл у них слушабельный.


Go to the top of the page
  Insert nick Quick quote
+Quote Post
post Feb 18 2020, 14:59:01
Post #3

Правь статус, ####!111
**************
Group: Металариец
Posts: 21,273
Releases: 14552
From: Г.Харьков
On Forums: 7 years 10 months
Thanks: 259681 time(s)
Unknown


ЦИТАТА(AHBAnep @ 18th February 2020 - 09:22:57) *
Как мне кажется, их FB полон пи*дежа. Типа, Аляска и первый магнитоальбом в 1978 году, за пару лет до рождения самого старого из них.
Есть у ребят чувство юмора.

100%! я сам поначалу повелся,потом начал гуглить и забил на все их веселухи.
Go to the top of the page
  Insert nick Quick quote
+Quote Post

Reply to this topicStart new topic
1 User(s) are reading this topic (1 Guests and 0 Anonymous Users)
0 Members:

 



- Lo-Fi Version Support form
Copyrights and abuse reports form
Time is now: 5th April 2020 - 05:08:29