Welcome Guest ( Log In | Register )

> Правила / Rules

Тут только для чтения лежат низкобитрейтные (<192kbps) релизы, для которых есть аналоги в высокобитрейтных форумах.

Here goes (and stand in read only mode) low bitrate releases (<192kbps) which were already replaced by high bitrate releases in corresponding forums.

> Presidio - Contra La Adversidad (2020), Heavy/Thrash Metal
post Feb 18 2020, 14:56:24
Post #1

Правь статус, ####!111
**************
Group: Металариец
Posts: 6,388
Releases: 5880
From: Lithuania
On Forums: 13 years 6 months
Thanks: 43674 time(s)
Lithuania


(IMG:https://metalarea.org/images/audiocovers/2020_Feb/acov_tid333911_thumb.jpg)

*Artist: Presidio
*Album: Contra La Adversidad
*Year: 2020
*Genre: Heavy/Thrash Metal
*Country: Argentina (IMG:https://metalarea.org/forum/style_images/flags/Argentina.png)
*Format: mp3@VBR191kbps (IMG:https://metalarea.org/images/bit_low.gif)
*Size: 61MB

Tracklist:
1. Preludio 01:07 (instrumental)
2. Buscando el camino 04:56
3. En tus manos 05:16
4. Gritos en el silencio 03:56
5. Repudiando mi odio 04:44
6. Demencia 04:49
7. Solo en sueños 05:16
8. No te detengas 04:18
9. Contra la adversidad 04:36
10. Sangrando la inmensidad 04:53
******************************
Total playing time: 43:51


(IMG:https://metalarea.org/images/youtube.png)

Technical info
(IMG:https://metalarea.org/images/spectrogram/2020_Feb/00d86314273f14eeb6b38b770b65ad19.png)
Input File: 02 - Buscando el camino.mp3
Channels : 2
Sample Rate : 44100
Precision : 16-bit
Duration : 00:04:56.44 = 13072872 samples = 22232.8 CDDA sectors
File Size : 6.98M
Bit Rate : 188k
Sample Encoding: MPEG audio (layer I, II or III)
Comments :
Title=Buscando el camino
Artist=Presidio
Album=Contra la Adversidad
Tracknumber=2
Year=2020
Genre=Metal



Register


Go to the top of the page
  Insert nick Quick quote
+Quote Post
 
Start new topic
Replies (1 - 2)
post Feb 19 2020, 07:06:46
Post #2

Три Литра
***
Group: Завсегдатай
Posts: 273
Releases: 0
From: Россия
On Forums: 8 years 1 month
Thanks: 89 time(s)
Russian Federation


PRESIDIO - Contra la adversidad (2020) - FULL ALBUM

https://www.youtube.com/watch?v=NU4vxS7i7oM&t=25s

Шаровые ссылки скачать в описании на ютубе
Go to the top of the page
  Insert nick Quick quote
+Quote Post
post Feb 19 2020, 10:21:43
Post #3

тебе 29, а ты все реверсами балуешься
***********
Group: Металариец
Posts: 1,905
Releases: 4
On Forums: 11 years 8 months
Thanks: 628 time(s)
Russian Federation


То ли битрейт такой, то ли бас пердит прям в уши - местами перебивает соло гитару даже (IMG:style_emoticons/default/13.gif)
Go to the top of the page
  Insert nick Quick quote
+Quote Post

Причина закрытия (Хогги 26-02-2020):
Closed TopicStart new topic
1 User(s) are reading this topic (1 Guests and 0 Anonymous Users)
0 Members:

 



- Lo-Fi Version Support form
Copyrights and abuse reports form
Time is now: 10th April 2020 - 07:28:10