Welcome Guest ( Log In | Register )

> И неформату есть предел.

Рэп/хип-хоп/шансон/поп удаляются. Для них есть свои порталы.

> Carpenter Brut - Leather Teeth (2018), Synthwave/Retrowave/Dark Synth
post Feb 19 2020, 17:56:08
Post #1

Три Литра
***
Group: Завсегдатай
Posts: 229
Releases: 8
From: Санкт-Петербург
On Forums: 14 years 2 weeks
Thanks: 792 time(s)
Russian Federation


(IMG:http://metalarea.org/images/audiocovers/2020_Feb/acov_tid333957_thumb.jpg)

*Artist: Carpenter Brut
*Album: Leather Teeth
*Year: 2018
*Genre: Synthwave/Retrowave/Dark Synth
*Country: France (IMG:http://metalarea.org/forum/style_images/flags/France.png)
*Format: mp3@CBR320kbps
*Size: 79MB

Tracklist:
01. Leather Teeth 03:53
02. Cheerleader Effect (feat. Kristoffer Rygg) 03:38
03. Sunday Lunch 03:15
04. Monday Hunt 02:56
05. Inferno Galore 03:49
06. Beware The Beast (feat. Mat McNerney) 03:46
07. Hairspray Hurricane 05:32
08. End Titles 05:23
******************************
Total playing time: 32:12



Technical info
(IMG:http://metalarea.org/images/spectrogram/2020_Feb/eee5c306f9bc31c1aae06a5c3f956a21.png)
Input File: 01 - Leather Teeth.mp3
Channels : 2
Sample Rate : 44100
Precision : 16-bit
Duration : 00:03:53.03 = 10276535 samples = 17477.1 CDDA sectors
File Size : 9.32M
Bit Rate : 320k
Sample Encoding: MPEG audio (layer I, II or III)
Comments :
Title=Leather Teeth
Artist=Carpenter Brut
Album=Leather Teeth
Tracknumber=01
Year=2018
Genre=Synthwave/Retrowave/Dark Synth



Register


Go to the top of the page
  Insert nick Quick quote
+Quote Post
 
Start new topic
Replies (1 - 2)
post Feb 20 2020, 07:06:08
Post #2

Три Литра
***
Group: Завсегдатай
Posts: 281
Releases: 1
On Forums: 10 years 6 months
Thanks: 101 time(s)
Russian Federation


Странно, я думал что он уже тут давно есть. казалось от сюда и тянул.
А вообще он и "пертурбатор" прям дико мне зашли. сколько потом слушал подобного ничего так не цепляло.


Thanks:
Go to the top of the page
  Insert nick Quick quote
+Quote Post
post Feb 20 2020, 07:30:28
Post #3

Три Литра
***
Group: Завсегдатай
Posts: 229
Releases: 8
From: Санкт-Петербург
On Forums: 14 years 2 weeks
Thanks: 792 time(s)
Russian Federation


Тоже удивился, не найдя здесь этот альбом. Из всего модного сейчас синтвейва/ретровейва он меня более всего зацепил. В свете обсуждения последнего сингла Ульвера и его отношения к этому стилю, решил выложить.
Go to the top of the page
  Insert nick Quick quote
+Quote Post

Reply to this topicStart new topic
2 User(s) are reading this topic (2 Guests and 0 Anonymous Users)
0 Members:

 



- Lo-Fi Version Support form
Copyrights and abuse reports form
Time is now: 5th June 2020 - 01:58:45