Welcome Guest ( Log In | Register )

> Mokoma - Ihmissokkelo (2020), Thrash/Heavy Metal
post Feb 20 2020, 12:36:49
Post #1

Правь статус, ####!111
**************
Group: Металариец
Posts: 21,974
Releases: 15165
From: Г.Харьков
On Forums: 8 years 3 weeks
Thanks: 275372 time(s)
Unknown


(IMG:https://metalarea.org/images/audiocovers/2020_Feb/acov_tid333993_thumb.jpg)

*Artist: Mokoma
*Album: Ihmissokkelo
*Year: 2020
*Genre: Thrash/Heavy Metal
*Country: Finland (IMG:https://metalarea.org/forum/style_images/flags/Finland.png)
*Format: mp3@CBR320kbps
*Size: 105MB

Tracklist:
01. Intro
02. Ilmoitusluontoista asiaa
03. Vuoret, huolet
04. Ihmissokkelo
05. Tuhat ei riitä
06. Toinen ihminen
07. Pimeä aine
08. Yöpuoli
09. Leikin loppu
10. Jäljet
11. Syyttävä sormi
12. Huomenna voikin olla niin
******************************
Total playing time: 45:42



Extended info
Marko Annala Guitars (1996-1998), Vocals (1996-present)
See also: ex-Slumgudgeon, ex-Tuska20, Karelian Division, ex-Pronssinen Pokaali
Tuomo Saikkonen Guitars, Vocals (1997-present)
See also: Mind Riot, ex-Tuska20, ex-The Machete
Kuisma Aalto Guitars, Vocals (1997-present)
See also: Mind Riot, ex-The Machete
Janne Hyrkäs Drums (1999-present)
See also: Wendigo, ex-Pronssinen Pokaali
Santtu Hämäläinen Bass (2003-present)
See also: The Machete



Technical info
(IMG:https://metalarea.org/images/spectrogram/2020_Feb/8dd0a5a7e88f225be1c6d343ffec80ec.png)
Input File: 04 - Ihmissokkelo.mp3
Channels : 2
Sample Rate : 44100
Precision : 16-bit
Duration : 00:04:23.88 = 11637108 samples = 19791 CDDA sectors
File Size : 10.6M
Bit Rate : 322k
Sample Encoding: MPEG audio (layer I, II or III)
Comments :
Title=Ihmissokkelo
Artist=Mokoma
Album=Ihmissokkelo
Tracknumber=4
Year=2020
Genre=Rock/Hard Rock/Metal
Discnumber=1



Register


Go to the top of the page
  Insert nick Quick quote
+Quote Post
 
Start new topic
Replies (1 - 7)
post Feb 20 2020, 17:52:49
Post #2

И Ван Дамм По Делам Вашим!
**************
Group: Металариец
Posts: 19,095
Releases: 26
On Forums: 11 years 11 months
Thanks: 10638 time(s)
Honduras


Пока всего пару тем послушал, но как показалось продолжают линию прошлого альбома с некоторым утяжелением звука.


Go to the top of the page
  Insert nick Quick quote
+Quote Post
post Feb 21 2020, 08:15:34
Post #3

И Ван Дамм По Делам Вашим!
**************
Group: Металариец
Posts: 19,095
Releases: 26
On Forums: 11 years 11 months
Thanks: 10638 time(s)
Honduras


Ну что, альбом не плох но пока не раскрылся.По первому впечатлению прошлый был по хитовее. На этом же после первого прослушивания ничего сразу не запомнилось.
Go to the top of the page
  Insert nick Quick quote
+Quote Post
post Feb 21 2020, 09:57:31
Post #4

Литр
*
Group: Подсевший
Posts: 90
Releases: 0
From: Асгард
On Forums: 10 years 10 months
Thanks: 0 time(s)
Russian Federation


Что-то у меня с медафайр файл не распаковывается, а с Сампо гугл вообще блокирует скачивание.
Go to the top of the page
  Insert nick Quick quote
+Quote Post
post Feb 21 2020, 17:08:00
Post #5

Правь статус, ####!111
**************
Group: Металариец
Posts: 3,023
Releases: 8
From: Dnipro
On Forums: 11 years 10 months
Thanks: 978 time(s)
Ukraine


Подумал что вокалисту лет 70, а ему всего то 48. (IMG:style_emoticons/default/18.gif)


Thanks:
Go to the top of the page
  Insert nick Quick quote
+Quote Post
post Feb 24 2020, 14:29:13
Post #6

Два Литра
**
Group: Завсегдатай
Posts: 133
Releases: 0
From: Українське місто Харків
On Forums: 13 years 8 months
Thanks: 74 time(s)
Ukraine


ЦИТАТА(isvili @ Feb 21 2020, 18:08:00) *
Подумал что вокалисту лет 70, а ему всего то 48. (IMG:style_emoticons/default/18.gif)

Karl Markso Annala.
Go to the top of the page
  Insert nick Quick quote
+Quote Post
post Feb 27 2020, 12:57:42
Post #7

Правь статус, ####!111
**************
Group: Металариец
Posts: 3,023
Releases: 8
From: Dnipro
On Forums: 11 years 10 months
Thanks: 978 time(s)
Ukraine


ЦИТАТА(Skyggedans @ Feb 24 2020, 15:29:13) *
Karl Markso Annala.
ОГО!!!! Я все понял. Карл, Маркуса в аннала (IMG:style_emoticons/default/1488.gif)
Go to the top of the page
  Insert nick Quick quote
+Quote Post
post Feb 27 2020, 13:55:14
Post #8

Четыре Литра
****
Group: Металариец
Posts: 306
Releases: 5
On Forums: 11 years 9 months
Thanks: 138 time(s)
Russian Federation


Анальный Карл Маркс
и на облоге ахтунг
Go to the top of the page
  Insert nick Quick quote
+Quote Post

Reply to this topicStart new topic
2 User(s) are reading this topic (2 Guests and 0 Anonymous Users)
0 Members:

 



- Lo-Fi Version Support form
Copyrights and abuse reports form
Time is now: 6th June 2020 - 19:38:17