Welcome Guest ( Log In | Register )

> Releases Upload / Добавление релизов

Добавить релиз тут / Click here to add release
Рекомендованные обменники / Recommended file shares

> Slaughter Messiah - Cursed To The Pyre (2020), Black/Thrash Metal
post Feb 20 2020, 13:16:00
Post #1

Правь статус, ####!111
**************
Group: Металариец
Posts: 21,187
Releases: 14469
From: Г.Харьков
On Forums: 7 years 10 months
Thanks: 258037 time(s)
Unknown


(IMG:https://metalarea.org/images/audiocovers/2020_Feb/acov_tid333999_thumb.jpg)

*Artist: Slaughter Messiah
*Album: Cursed To The Pyre
*Year: 2020
*Genre: Black/Thrash Metal
*Country: Belgium (IMG:https://metalarea.org/forum/style_images/flags/Belgium.png)
*Format: mp3@CBR320kbps
*Size: 97MB

Tracklist:
1. From the Tomb into the Void 04:38
2. Mutilated by Depths 06:02
3. Pouring Chaos 03:42
4. Hideous Afflicition 06:59
5. Descending to Black Fire 05:12
6. Pyre 05:30
7. The Hammer of Ghouls 04:46
8. Fog of the Malevolent Sore 05:46
******************************
Total playing time: 42:35




Extended info
Rod "Iron Bitch Desecrator" Guitars (2008-2010, 2011-present)
See also: Heinous, ex-Einherjar
Lord Sabathan Vocals, Bass (2011-present)
See also: Heinous, ex-Godsend, ex-Horacle, ex-Slanesh, ex-Dying Corpse, Sabathan, ex-Distant Warning, ex-Enthroned, ex-Dawn of Crucifixion, ex-Morbid Death
Thomas "Exhumator" Guitars (2012-present)
See also: Cerro Blasfemo, Destrukt, Heinous, Spermafrost, Murder One, ex-Anal Vomit (live), ex-Horacle (live)
John Berry Drums (2015-present)
See also: Burial Ground, Gae Bolga, Nocturnal, ex-Goat Torment (live)


Technical info
(IMG:https://metalarea.org/images/spectrogram/2020_Feb/384b7fecee5e60dd4fb5a16039a9f2d3.png)
Input File: 04. Hideous Affliction.mp3
Channels : 2
Sample Rate : 44100
Precision : 16-bit
Duration : 00:06:59.50 = 18499818 samples = 31462.3 CDDA sectors
File Size : 16.8M
Bit Rate : 320k
Sample Encoding: MPEG audio (layer I, II or III)
Comments :
Title=Hideous Affliction
Artist=Slaughter Messiah
Album=Cursed to the Pyre
Tracknumber=04/08
Year=2020-20-20
Discnumber=1/1



Register


Go to the top of the page
  Insert nick Quick quote
+Quote Post
 
Start new topic
Replies (1 - 5)
post Feb 20 2020, 13:27:41
Post #2

Правь статус, ####!111
**************
Group: Металариец
Posts: 21,187
Releases: 14469
From: Г.Харьков
On Forums: 7 years 10 months
Thanks: 258037 time(s)
Unknown


Cloud Mail 320
Register


Go to the top of the page
  Insert nick Quick quote
+Quote Post
post Feb 20 2020, 15:20:14
Post #3

Два Литра
**
Group: Завсегдатай
Posts: 101
Releases: 0
On Forums: 1 month 1 week
Thanks: 57 time(s)
Unknown


На данный момент навьё от Slaughter Messiah и крайний Midnight пока самые угарные и башкотрясные релизы в блэко треше (IMG:style_emoticons/default/metaler.gif)


Go to the top of the page
  Insert nick Quick quote
+Quote Post
post Feb 21 2020, 01:28:00
Post #4

Правь статус, ####!111
**************
Group: Металариец
Posts: 21,187
Releases: 14469
From: Г.Харьков
On Forums: 7 years 10 months
Thanks: 258037 time(s)
Unknown


FLAC (Tracks) 286 mb
Register


Go to the top of the page
  Insert nick Quick quote
+Quote Post
post Feb 21 2020, 04:12:52
Post #5

\m/
Group Icon
Group: S-moderation team
Posts: 7,765
Releases: 19
From: Петропавловск-Камчатский
On Forums: 10 years 9 months
Thanks: 7497 time(s)
Russian Federation


ЦИТАТА(Der_Hexer @ 21st February 2020 - 02:20:14) *
крайний Midnight

Одно из разочарований. Крайне слабый крайний альбом. Предыдущие содержали больше энергетики.
Go to the top of the page
  Insert nick Quick quote
+Quote Post
post Feb 21 2020, 22:31:56
Post #6

Only Death is Real
********
Group: Металариец
Posts: 808
Releases: 0
From: R'lyeh
On Forums: 3 years 3 months
Thanks: 721 time(s)
Poland


Great album. Very old school. Artwork made by Rok (Rok, Sadistik Exekution) is also incredible. (IMG:style_emoticons/default/9.gif)


Go to the top of the page
  Insert nick Quick quote
+Quote Post

Reply to this topicStart new topic
2 User(s) are reading this topic (2 Guests and 0 Anonymous Users)
0 Members:

 



- Lo-Fi Version Support form
Copyrights and abuse reports form
Time is now: 31st March 2020 - 01:48:56