Welcome Guest ( Log In | Register )

> И неформату есть предел.

Рэп/хип-хоп/шансон/поп удаляются. Для них есть свои порталы.

 
Reply to this topicStart new topic
> Mlada Fronta - No Trespassing (2018), Synthwave/Retrowave/Dark Synth
post Feb 20 2020, 23:31:36
Post #1

Три Литра
***
Group: Завсегдатай
Posts: 229
Releases: 8
From: Санкт-Петербург
On Forums: 14 years 2 weeks
Thanks: 792 time(s)
Russian Federation


(IMG:http://metalarea.org/images/audiocovers/2020_Feb/acov_tid334029_thumb.jpg)

*Artist: Mlada Fronta
*Album: No Trespassing
*Year: 2018
*Genre: Synthwave/Retrowave/Dark Synth
*Country: France (IMG:http://metalarea.org/forum/style_images/flags/France.png)
*Format: mp3@CBR320kbps
*Size: 104MB

Tracklist:
01. Deathdreams 04:01
02. The Warriors 04:57
03. No Trespassing 04:35
04. Magnus The Avenger 05:12
05. From Hell 04:08
06. Faceless Man 04:45
07. Arcade Rider 04:50
08. The Night Hunter 04:33
09. Dead Or Alive 04:23
10. Imminent Danger 03:36
******************************
Total playing time: 45:01



Extended info
Remy Pelleschi aka Mlada Fronta на стыке тысячелетий выпустил несколько отличных электро-индустриальных альбомов, а несколько лет назад внезапно сменил стилистику и заиграл набиравший популярность синтвейв.


Technical info
(IMG:http://metalarea.org/images/spectrogram/2020_Feb/29f7c3e18d26f0d144816e957982a123.png)
Input File: 01 - Deathdreams.mp3
Channels : 2
Sample Rate : 44100
Precision : 16-bit
Duration : 00:04:01.57 = 10653237 samples = 18117.8 CDDA sectors
File Size : 9.66M
Bit Rate : 320k
Sample Encoding: MPEG audio (layer I, II or III)
Comments :
Title=Deathdreams
Artist=Mlada Fronta
Album=No Trespassing
Tracknumber=01
Year=2018
Genre=Electro/Synthwave/Dark Synth



Register


Go to the top of the page
  Insert nick Quick quote
+Quote Post

Reply to this topicStart new topic
2 User(s) are reading this topic (2 Guests and 0 Anonymous Users)
0 Members:

 



- Lo-Fi Version Support form
Copyrights and abuse reports form
Time is now: 5th June 2020 - 00:46:29