Welcome Guest ( Log In | Register )

> И неформату есть предел.

Рэп/хип-хоп/шансон/поп удаляются. Для них есть свои порталы.

> Junta Cadre - The Red Detachment (2020), Industrial/Power Electronics/Noise
post Feb 21 2020, 12:59:42
Post #1

Group: Подсевший
Posts: 14
Releases: 1
On Forums: 10 months 4 weeks
Thanks: 42 time(s)
Unknown


(IMG:https://metalarea.org/images/audiocovers/2020_Feb/acov_tid334044_thumb.jpg)

*Artist: Junta Cadre
*Album: The Red Detachment
*Year: 2020
*Genre: Industrial/Power Electronics/Noise
*Country: United States (IMG:https://metalarea.org/forum/style_images/flags/United%20States.png)
*Format: mp3@CBR320kbps
*Size: 76MB

Tracklist:
01. The Red Detachment 05:50
02. Campaign Of A Hundred Flowers 04:43
03. Violence Is The Crucible Of Revolution 05:46
04. Public Struggle, The Tarring Of Traitors 05:12
05. The Enduring Presence Of Trauma 05:59
06. It Cannot Be Made Good 05:05
******************************
Total playing time: 32:35

(IMG:https://metalarea.org/images/youtube.png)


Technical info
(IMG:https://metalarea.org/images/spectrogram/2020_Feb/28ec304df968d55cacf9b518453218ac.png)
Input File: 01. The Red Detachment.mp3
Channels : 2
Sample Rate : 44100
Precision : 16-bit
Duration : 00:05:50.30 = 15448010 samples = 26272.1 CDDA sectors
File Size : 14.1M
Bit Rate : 322k
Sample Encoding: MPEG audio (layer I, II or III)
Comments :
Title=The Red Detachment
Artist=Junta Cadre
Album=The Red Detachment
Tracknumber=01
Year=2020
Genre=Power Electronics/Noise



Register


Go to the top of the page
  Insert nick Quick quote
+Quote Post
 
Start new topic
Replies (1 - 1)
post Feb 22 2020, 22:08:31
Post #2

Group: Подсевший
Posts: 14
Releases: 1
On Forums: 10 months 4 weeks
Thanks: 42 time(s)
Unknown


Неплохой, не сильно давящий на мозги ПЭ и с допустимым для человеческой психики уровнем шума. У автора есть еще основной проект Herukrat - исламистский ПЭ. В этом году также вышел новый альбом на том же Total Black.
Go to the top of the page
  Insert nick Quick quote
+Quote Post

Reply to this topicStart new topic
2 User(s) are reading this topic (2 Guests and 0 Anonymous Users)
0 Members:

 



- Lo-Fi Version Support form
Copyrights and abuse reports form
Time is now: 28th November 2020 - 03:21:38