Welcome Guest ( Log In | Register )

Объявления

* gmail.com упорно продолжает считать почту с нас "unsolicited" и отбивает в том числе и письма активации, поэтому просьба использовать альтернативные почтовые ящики.
------------
* gmail.com continues reject all mail from us as "unsolicited" (activation mails too) therefore please use alternate mail servers.
> Mjød - Шёпот Последней Зимы (2020), Viking/Folk Metal
post Feb 21 2020, 20:01:31
Post #1

Правь статус, ####!111
**************
Group: Металариец
Posts: 36,412
Releases: 27145
From: Г.Харьков
On Forums: 12 years 2 months
Thanks: 591282 time(s)
Ukraine


(IMG:https://metalarea.org/images/audiocovers/2020_Feb/acov_tid334070_thumb.jpg)

*Artist: Mjød
*Album: Шёпот Последней Зимы
*Year: 2020
*Genre: Viking/Folk Metal
*Country: Russian Federation (IMG:https://metalarea.org/forum/style_images/flags/Russian%20Federation.png)
*Format: mp3@CBR320kbps
*Size: 95MB

Tracklist:
1. Шёпот последней зимы
2. Мелодия смерти
3. В бледных объятиях
4. Сны глупца
5. Безвозмездная кара
6. Мертвецы чувствуют голод (Intro)
7. Мертвецы чувствуют голод
8. В забытой реке
9. Голос фьордов
10. Предел
******************************
Total playing time: 41:53



Preview 3

Extended info
Orm Bass (2016-2018), Guitars (2018-present)
Sigurðr Drums (2016-present)
See also: ex-Ulfdallir, ex-Dedth (live)
Jorðleifr Guitars, Vocals (2016-present)
See also: Restless Mind (live), ex-Ulfdallir (live)
Ranðgrið Bagpipes (2017-present)
Johann Thjotvaldrson Bass (2018-present)


Technical info
(IMG:https://metalarea.org/images/spectrogram/2020_Feb/e44ef4a9787fb64c8772b67b3acd15db.png)
Input File: 04 - Сны Глупца.mp3
Channels : 2
Sample Rate : 44100
Precision : 16-bit
Duration : 00:04:03.00 = 10716300 samples = 18225 CDDA sectors
File Size : 9.72M
Bit Rate : 320k
Sample Encoding: MPEG audio (layer I, II or III)
Comments :
Title=Сны Глупца
Artist=Mjød
Album=Шёпот Последней Зимы
Tracknumber=4
Year=2020
Genre=Metal



Register


Go to the top of the page
  Insert nick Quick quote
+Quote Post
 
Start new topic
Replies (1 - 1)
post Feb 21 2020, 23:49:19
Post #2

Шесть Литров
******
Group: Металариец
Posts: 591
Releases: 26
On Forums: 15 years 1 month
Thanks: 579 time(s)
Chile


Thanks (IMG:style_emoticons/default/dwarf-1.gif)


Go to the top of the page
  Insert nick Quick quote
+Quote Post

Reply to this topicStart new topic
2 User(s) are reading this topic (2 Guests and 0 Anonymous Users)
0 Members:

 



- Lo-Fi Version Support form
Copyrights and abuse reports form
Time is now: 15th July 2024 - 21:22:23