Welcome Guest ( Log In | Register )

> Panzergoat - Selfdestruction Anthems (2020), Black Metal/Crust/Nekropunk
post Feb 22 2020, 14:36:58
Post #1

Мегаманьяк
***********
Group: Металариец
Posts: 1,780
Releases: 295
On Forums: 13 years 3 weeks
Thanks: 6865 time(s)
Russian Federation


(IMG:http://metalarea.org/images/audiocovers/2020_Feb/acov_tid334084_thumb.jpg)

*Artist: Panzergoat
*Album: Selfdestruction Anthems
*Year: 2020
*Genre: Black Metal/Crust/Nekropunk
*Country: Russian Federation (IMG:http://metalarea.org/forum/style_images/flags/Russian%20Federation.png)
*Format: mp3@CBR320kbps
*Size: 95MB

Tracklist:
01. Knife Worship
02. Thoughts Of Suicidal Freak
03. Fuck You All
04. Violence Master
05. Rain Of Pain
06. Nekroterror
07. Churching
08. Hurricane
09. Endless Suffering
10. Infernal Hangover
11. Zum Kotzen
12. Grime
******************************
Total playing time: 41:29

Preview 1

Preview 3

Extended info
Коллектив, собранный из бывших членов RAGE IN SILENCE, PAIN AGAIN, GRAVESIDE и прочих адовых актов, с целью исполнять черный металл в своем восприятии. Путем надругательств над системой построения композиций и жанровым скудоумием, каждый из членов команды привносит в творчество все своё безумие, нигилизм и бредовые фантазии, превращая музыку в ритуалы шумового насилия.
Стилистические рамки стерты, каноны любых жанров отправлены далеко и навсегда.
Команда Panzergoat никого ни к чему не обязывает и ни к чему не призывает и также не ставит целью оскорбление чьих-либо религиозных, национальных и этических чувств.
Давайте оставим политические и религиозные и антирелигиозные тенденции тем, кто не занимается музыкальной и творческой деятельностью.
В группе успешно уживаются представители разных религиозных конфессий и национальностей.
Из всех возможных пропаганд, мы в состоянии поддержать только здравый рассудок и творческую работу мозга.
Любые обвинения по поводу осквернений и оскорблений - всего лишь плод фантазий оскорбившегося.
Да пребудет с Вами сила, все ваши Боги и тотальный звуковой беспредел.

Lineup:
Johny - guitar
Bunja - vocals
Franke - drums
Dime - bass


Technical info
(IMG:http://metalarea.org/images/spectrogram/2020_Feb/24cb7776a09827bcc365b92138cdc30f.png)
Input File: 12-Grime.mp3
Channels : 2
Sample Rate : 44100
Precision : 16-bit
Duration : 00:03:47.10 = 10015022 samples = 17032.4 CDDA sectors
File Size : 9.09M
Bit Rate : 320k
Sample Encoding: MPEG audio (layer I, II or III)
Comments :
Title=Grime
Artist=Panzergoat
Album=Selfdestruction Anthems
Tracknumber=12
Year=2020
Genre=Black Metal / Crust Punk



Register


Go to the top of the page
  Insert nick Quick quote
+Quote Post
 
Start new topic
Replies (1 - 3)
post Feb 23 2020, 06:38:49
Post #2

Пять Литров
*****
Group: Металариец
Posts: 422
Releases: 0
On Forums: 12 years 6 months
Thanks: 117 time(s)
Russian Federation


Только ссыкуны могут написать такое послание! метализды хреновы! У всех успели попросить прощения? а у чеченцев, аль-каиды, моссада и госдепа? прям заел меня тот кусок из обращения группы "сатанистов" с просьбами о прощении. Даже слушать не буду. А так хотел.


Go to the top of the page
  Insert nick Quick quote
+Quote Post
post Feb 23 2020, 20:03:04
Post #3

ΕΥΜΕΝΙΔΕΣ
**************
Group: Металариец
Posts: 2,507
Releases: 28
From: Kænugarður
On Forums: 14 years 9 months
Thanks: 3590 time(s)
Ukraine


Да это же просто шапка группы из вкшеньки. Видимо пытались ее прикрыть, как всегда.
Go to the top of the page
  Insert nick Quick quote
+Quote Post
post Feb 24 2020, 16:04:57
Post #4

Group: Дух
Posts: 2
Releases: 0
On Forums: 2 years 2 months
Thanks: 1 time(s)
French Southern Territories


Отличный альбом. Был на концертах в Мск - жгут по дикому. Весьма жирная команда.
Go to the top of the page
  Insert nick Quick quote
+Quote Post

Reply to this topicStart new topic
2 User(s) are reading this topic (2 Guests and 0 Anonymous Users)
0 Members:

 



- Lo-Fi Version Support form
Copyrights and abuse reports form
Time is now: 6th December 2021 - 01:37:51