Welcome Guest ( Log In | Register )

> И неформату есть предел.

Рэп/хип-хоп/шансон/поп удаляются. Для них есть свои порталы.

> Ordo Rosarius Equilibrio - Make Love And War - The Wedlock Of Roses & Equilibrium [compilation] (2001), Neofolk (D10)
post Feb 22 2020, 15:48:15
Post #1

Четыре Литра
****
Group: Металариец
Posts: 382
Releases: 137
From: Helvetia
On Forums: 9 years 9 months
Thanks: 3065 time(s)
Switzerland


(IMG:https://metalarea.org/images/audiocovers/2020_Feb/acov_tid334088_thumb.jpg)

*Artist: Ordo Rosarius Equilibrio
*Album: Make Love And War - The Wedlock Of Roses & Equilibrium [compilation]
*Year: 2001
*Genre: Neofolk
*Country: Sweden (IMG:https://metalarea.org/forum/style_images/flags/Sweden.png)
*Format: mp3@CBR320kbps
*Size: 162MB

Tracklist:
1 Beloved Kitty And The Piercing Bolts Of Amor 1:23
2 Ashen Like Love And Black Like The Snow 4:12
3 Passing Eyes In Mimer's Well 4:09
4 Hunting For The Black September 5:01
5 Flowers And Moonshine In My Garden Of Eden 4:05
6 Liebe Utopia On Weaves Of Silken Carnage 5:45
7 Make Love And War 5:10
8 Never Before At The Beauty Of Spring 6:31
9 Harvesting The Crop, The Chaste Verdict Of Negligence 5:10
10 Apocalypse Kisses, Commemorating My Summer Solstice 4:50
11 Love Conquers All 4:04
12 To Tirzah 4:25
13 Erotisk Tillägnan 5:25
14 Advancement And Demoralization 2:20
15 My Felicity Of Midwinter 4:36
16 Rituals Of Love In The Passage Of Genocide, Song Of Rose 4:22
17 Ode To The Beloved And Impaired 1:52
******************************
Total playing time: 1:13:20


(IMG:https://metalarea.org/images/youtube.png)

Extended info
Originally Released by Cold Meat Industry 2000 & 2001 as Make Love And War (The Wedlock Of Roses) CMI.84 & Make Love And War (The Wedlock Of Equilibrium) CMI.94


Technical info
(IMG:https://metalarea.org/images/spectrogram/2020_Feb/11faeece811ba7c9dd785ad50c077826.png)
Input File: 06. Liebe Utopia On Weaves Of Silken Carnage.mp3
Channels : 2
Sample Rate : 44100
Precision : 16-bit
Duration : 00:05:43.11 = 15131327 samples = 25733.5 CDDA sectors
File Size : 13.8M
Bit Rate : 322k
Sample Encoding: MPEG audio (layer I, II or III)
Comments :
Title=Liebe Utopia On Weaves Of Silken Carnage
Artist=Ordo Rosarius Equilibrio
Album=Make Love, And War (The Wedlock Of Equilibrium)
Tracknumber=06/17
Year=2001
Genre=Dark Folk / Martial Industrial
Discnumber=1/1



Register


Go to the top of the page
  Insert nick Quick quote
+Quote Post
 
Start new topic
Replies (1 - 1)
post Jun 25 2022, 04:31:50
Post #2

Враг Газпрома
**************
Group: Металариец
Posts: 6,886
Releases: 0
On Forums: 13 years 5 months
Thanks: 2989 time(s)
Russian Federation


Собственно альбом Make Love And War (The Wedlock Of Equilibrium) состоит из следующих песен:
Beloved Kitty And The Piercing Bolts Of Amor
Harvesting The Crop, The Chaste Verdict Of Negligence
Apocalypse Kisses, Commemorating My Summer Solstice
Love Conquers All
To Tirzah
Erotisk Tillägnan
Advancement And Demoralization
My Felicity Of Midwinter
Rituals Of Love In The Passage Of Genocide, Song Of Rose
Ode To The Beloved And Impaired

Альбом по сути повторяет предшественника, как стилистически, так и в плане настроения: нео-фолк вкупе с маршиальными делами, замешанный на сплошном посторгаистическом пессимизме и пофигизме. Из всего количества номеров можно еще как-то выделить My Felicity Of Midwinter и Rituals Of Love In The Passage Of Genocide, Song Of Rose. Альбом целиком в духе множества подобных, так что можно благополучно спутать его со многими другими.
Go to the top of the page
  Insert nick Quick quote
+Quote Post

Reply to this topicStart new topic
1 User(s) are reading this topic (1 Guests and 0 Anonymous Users)
0 Members:

 



- Lo-Fi Version Support form
Copyrights and abuse reports form
Time is now: 27th November 2022 - 04:03:35