Welcome Guest ( Log In | Register )

> Concilium - The Oblivion Of Time In The Dim Light [ep] (2019), Black Metal
post Feb 26 2020, 09:36:26
Post #1

Правь статус, ####!111
**************
Group: Металариец
Posts: 2,091
Releases: 1654
From: Praha
On Forums: 6 years 5 months
Thanks: 42839 time(s)
Czech Republic


(IMG:http://metalarea.org/images/audiocovers/2020_Feb/acov_tid334188_thumb.jpg)

*Artist: Concilium
*Album: The Oblivion Of Time In The Dim Light [ep]
*Year: 2019
*Genre: Black Metal
*Country: Portugal (IMG:http://metalarea.org/forum/style_images/flags/Portugal.png)
*Format: mp3@CBR320kbps
*Size: 94MB

Tracklist:
1. Glimpse of Passing 08:2
2. Catacomb Churches 07:49
3. Ancient Below Cemeteries 13:56
4. Passageways for Burial 10:34
******************************
Total playing time: 32:19

Extended info
Putrid Cult - PUTRID 160


Technical info
(IMG:http://metalarea.org/images/spectrogram/2020_Feb/1b8cab9715fab229d82f2d95b218be01.png)
Input File: 01. Glimpse of Passing.mp3
Channels : 2
Sample Rate : 44100
Precision : 16-bit
Duration : 00:08:21.03 = 22095247 samples = 37577 CDDA sectors
File Size : 20.1M
Bit Rate : 320k
Sample Encoding: MPEG audio (layer I, II or III)
Comments :
Title=Glimpse of Passing
Artist=Concilium
Album=The Oblivion Of Time In The Dim Light
Tracknumber=01/04
Year=2019
Genre=Black Metal



Register


Go to the top of the page
  Insert nick Quick quote
+Quote Post
 
Start new topic
Replies (1 - 1)
post Feb 26 2020, 11:50:58
Post #2
BAN
Banned till
Oct 19 2020, 12:31:55



Members of Necrobode and Summon.
Обскурный монолитный Black\Death.



Thanks:
Go to the top of the page
  Insert nick Quick quote
+Quote Post

Reply to this topicStart new topic
1 User(s) are reading this topic (1 Guests and 0 Anonymous Users)
0 Members:

 



- Lo-Fi Version Support form
Copyrights and abuse reports form
Time is now: 25th September 2020 - 11:15:01