Welcome Guest ( Log In | Register )

> И неформату есть предел.

Рэп/хип-хоп/шансон/поп удаляются. Для них есть свои порталы.

> Dead Melodies & Zenjungle - Anthropocene [collaboration] (2020), Dark Ambient | Dark Ambient/Dark Jazz
post Feb 26 2020, 10:41:58
Post #1

Group: Подсевший
Posts: 14
Releases: 1
On Forums: 10 months 4 weeks
Thanks: 42 time(s)
Unknown


(IMG:https://metalarea.org/images/audiocovers/2020_Feb/acov_tid334191_thumb.jpg)

*Artist: Dead Melodies & Zenjungle
*Album: Anthropocene [collaboration]
*Year: 2020
*Genre: Dark Ambient | Dark Ambient/Dark Jazz
*Country: United Kingdom (IMG:https://metalarea.org/forum/style_images/flags/United%20Kingdom.png) | Greece (IMG:https://metalarea.org/forum/style_images/flags/Greece.png)
*Format: mp3@CBR320kbps
*Size: 121MB

Tracklist:
01. The Book 06:04
02. Wisp 08:54
03. Where Demons Sleep 10:28
04. Illusions 08:34
05. The Lowering 17:48
******************************
Total playing time: 51:48


(IMG:https://metalarea.org/images/youtube.png)

Technical info
(IMG:https://metalarea.org/images/spectrogram/2020_Feb/3cddafab541294c0eb821797d61d93ec.png)
Input File: 01. The Book.mp3
Channels : 2
Sample Rate : 44100
Precision : 16-bit
Duration : 00:06:03.91 = 16048211 samples = 27292.9 CDDA sectors
File Size : 14.6M
Bit Rate : 322k
Sample Encoding: MPEG audio (layer I, II or III)
Comments :
Title=The Book
Artist=Dead Melodies & Zenjungle
Album=Anthropocene
Tracknumber=01
Year=2020
Genre=Dark Ambient/Jazz



Register


Go to the top of the page
  Insert nick Quick quote
+Quote Post
 
Start new topic
Replies (1 - 2)
post Feb 26 2020, 12:39:14
Post #2

Восемь Литров
********
Group: Металариец
Posts: 819
Releases: 0
On Forums: 13 years 1 month
Thanks: 362 time(s)
Poland


Может Apocryphos последний есть?
Go to the top of the page
  Insert nick Quick quote
+Quote Post
post Feb 26 2020, 22:05:56
Post #3

Group: Подсевший
Posts: 14
Releases: 1
On Forums: 10 months 4 weeks
Thanks: 42 time(s)
Unknown


gena, увы, нет.


Thanks:
(1) POMAHOB,
Go to the top of the page
  Insert nick Quick quote
+Quote Post

Reply to this topicStart new topic
2 User(s) are reading this topic (2 Guests and 0 Anonymous Users)
0 Members:

 



- Lo-Fi Version Support form
Copyrights and abuse reports form
Time is now: 28th November 2020 - 03:53:26