Welcome Guest ( Log In | Register )

> Releases Upload / Добавление релизов

Добавить релиз тут / Click here to add release
Рекомендованные обменники / Recommended file shares

 
Reply to this topicStart new topic
> Perky Macabre - Ovilus [ep] (2020), Grindcore (D137)
post Feb 28 2020, 15:37:57
Post #1

Serial Uploader
Group Icon
Group: V.I.P
Posts: 37,112
Releases: 35296
From: Lithuania
On Forums: 11 years 9 months
Thanks: 418060 time(s)
Lithuania


(IMG:https://metalarea.org/images/audiocovers/2020_Feb/acov_tid334299_thumb.jpg)

*Artist: Perky Macabre
*Album: Ovilus [ep]
*Year: 2020
*Genre: Grindcore
*Country: United States (IMG:https://metalarea.org/forum/style_images/flags/United%20States.png)
*Format: mp3@CBR320kbps
*Size: 12MB

Tracklist:
01. Haunted Skull 00:28
02. Chaotic Vision 00:14
03. Blood In My Eyes 00:39
04. I'm So Beautiful 00:40
05. Static Body 00:24
06. Ovilus 00:46
******************************
Total playing time: 3:11



Technical info
(IMG:https://metalarea.org/images/spectrogram/2020_Feb/8c8d02c54a6796edc55a5f95808f5819.png)
Input File: 02. Chaotic Vision.mp3
Channels : 2
Sample Rate : 44100
Precision : 16-bit
Duration : 00:00:14.16 = 624412 samples = 1061.93 CDDA sectors
File Size : 670k
Bit Rate : 378k
Sample Encoding: MPEG audio (layer I, II or III)
Comments :
Title=Chaotic Vision
Artist=Perky Macabre
Album=Ovilus
Tracknumber=2
Year=2020



Register


Go to the top of the page
  Insert nick Quick quote
+Quote Post

Reply to this topicStart new topic
1 User(s) are reading this topic (1 Guests and 0 Anonymous Users)
0 Members:

 



- Lo-Fi Version Support form
Copyrights and abuse reports form
Time is now: 31st March 2020 - 20:15:03