Welcome Guest ( Log In | Register )

Объявления

* gmail.com упорно продолжает считать почту с нас "unsolicited" и отбивает в том числе и письма активации, поэтому просьба использовать альтернативные почтовые ящики.
------------
* gmail.com continues reject all mail from us as "unsolicited" (activation mails too) therefore please use alternate mail servers.

> 

Здесь релизы с живыми прямыми ссылками на lossless

> Noituma - Tervahauta (2020), Folk/Pagan Black Metal
post Mar 3 2020, 13:51:08
Post #1

Правь статус, ####!111
**************
Group: Металариец
Posts: 36,412
Releases: 27150
From: Г.Харьков
On Forums: 12 years 2 months
Thanks: 591282 time(s)
Ukraine


(IMG:https://metalarea.org/images/audiocovers/2020_Mar/acov_tid334564_thumb.jpg)

*Artist: Noituma
*Album: Tervahauta
*Year: 2020
*Genre: Folk/Pagan Black Metal
*Country: Finland (IMG:https://metalarea.org/forum/style_images/flags/Finland.png)
*Format: mp3@CBR320kbps
*Size: 111MB

Tracklist:
1. Ruttoisten hautausmaa 05:33
2. Tervahauta 05:13
3. Majakan neito 05:03
4. Noitavasara 07:21
5. Isle of Ravens 04:41
6. Vainajan tarina 06:27
7. Hirttopuu 04:33
8. Kahakka 06:08
9. Merestä noussut 02:55
******************************
Total playing time: 47:54




Extended info
Onni Kentala Bass
Jonas Frilund Drums
Petri Paasila Guitars
Vesa Tuomi Vocals
Antti Karvonen Guitars (2018-present)
See also: Buckets of Faith
Krista Viola (2019-present)


Technical info
(IMG:https://metalarea.org/images/spectrogram/2020_Mar/e6196e0012fe4d5cfd93c981835da453.png)
Input File: 03 - Majakan Neito.mp3
Channels : 2
Sample Rate : 44100
Precision : 16-bit
Duration : 00:05:03.88 = 13400932 samples = 22790.7 CDDA sectors
File Size : 12.4M
Bit Rate : 325k
Sample Encoding: MPEG audio (layer I, II or III)
Comments :
Title=Majakan Neito
Artist=Noituma
Album=Tervahauta
Tracknumber=3
Year=2020



Register


Go to the top of the page
  Insert nick Quick quote
+Quote Post
 
Start new topic
Replies (1 - 4)
post Mar 4 2020, 02:01:12
Post #2

Правь статус, ####!111
**************
Group: Металариец
Posts: 36,412
Releases: 27150
From: Г.Харьков
On Forums: 12 years 2 months
Thanks: 591282 time(s)
Ukraine


Cloud Mail 320
Register


Go to the top of the page
  Insert nick Quick quote
+Quote Post
post Mar 4 2020, 02:17:57
Post #3

Шесть Литров
******
Group: Металариец
Posts: 591
Releases: 26
On Forums: 15 years 1 month
Thanks: 579 time(s)
Chile


Thanks (IMG:style_emoticons/default/dwarf-1.gif)


Go to the top of the page
  Insert nick Quick quote
+Quote Post
post Mar 4 2020, 11:19:53
Post #4

Два Литра
**
Group: Завсегдатай
Posts: 159
Releases: 2
From: г. Нальчик
On Forums: 11 years 7 months
Thanks: 649 time(s)
Russian Federation


Noituma - Tervahauta (2020), FLAC (tracks), Lossless 355 MB
Register


Go to the top of the page
  Insert nick Quick quote
+Quote Post
post Mar 4 2020, 19:21:27
Post #5

Ёлд ХеллоВяйне
Group Icon
Group: V.I.P
Posts: 34,917
Releases: 143
From: Питер
On Forums: 17 years 8 months
Thanks: 22024 time(s)
Russian Federation


Вяло. Ни удали, ни куража. Нечастые блэковые моменты картину особо не оживляют, а в остальном похоже на безжизненный Lumsk.
Go to the top of the page
  Insert nick Quick quote
+Quote Post

Reply to this topicStart new topic
2 User(s) are reading this topic (2 Guests and 0 Anonymous Users)
0 Members:

 



- Lo-Fi Version Support form
Copyrights and abuse reports form
Time is now: 15th July 2024 - 21:41:06