Welcome Guest ( Log In | Register )

> И неформату есть предел.

Рэп/хип-хоп/шансон/поп удаляются. Для них есть свои порталы.

 
Reply to this topicStart new topic
> Necessary - Voldsløkka (2010), Dub
post Mar 3 2020, 18:49:07
Post #1

Три Литра
***
Group: Завсегдатай
Posts: 202
Releases: 8
From: Санкт-Петербург
On Forums: 13 years 10 months
Thanks: 645 time(s)
Russian Federation


(IMG:http://metalarea.org/images/audiocovers/2020_Mar/acov_tid334574_thumb.jpg)

*Artist: Necessary
*Album: Voldsløkka
*Year: 2010
*Genre: Dub
*Country: Norway (IMG:http://metalarea.org/forum/style_images/flags/Norway.png)
*Format: mp3@CBR320kbps
*Size: 152MB

Tracklist:
01. Chinnamasta 09:32
02. Sov Godt 05:56
03. Grimm Og Gru 07:18
04. Peshawar 06:29
05. Voldsløkka 06:25
06. Syltetøy 08:17
07. Slukker Lyset 07:59
08. Helvete Ser På Deg 07:46
09. Lord B 09:30
******************************
Total playing time: 1:09:12



Extended info
A large unit live dub group, Necessary come armed with former Swans/Prong/Godflesh drummer Ted Parsons, and Oslo musicians Matti Hansen, Markus O. Klyve, Andreas Mork, UK based DJ Tony F. Wilson, and Salvador Sanchez. The album's sonic imagery spans the globe, from Scandinavian jazz to distort bass dub to music inspired by faraway lands.

Musicians: Matti Hansen, Markus O. Klyve, Andreas Mork, Tony F. Wilson, Salvador Sanchez, Ted Parsons
Production, Arrangement, Mix: Justin K. Broadrick


Technical info
(IMG:http://metalarea.org/images/spectrogram/2020_Mar/0ffb4a901826464bb49d9dfa64b1c24b.png)
Input File: 01 - Chinnamasta.mp3
Channels : 2
Sample Rate : 44100
Precision : 16-bit
Duration : 00:09:32.51 = 25247603 samples = 42938.1 CDDA sectors
File Size : 22.9M
Bit Rate : 320k
Sample Encoding: MPEG audio (layer I, II or III)
Comments :
Title=Chinnamasta
Artist=Necessary
Album=Voldsløkka
Tracknumber=01
Year=2010
Genre=Dub



Register


Go to the top of the page
  Insert nick Quick quote
+Quote Post

Reply to this topicStart new topic
1 User(s) are reading this topic (1 Guests and 0 Anonymous Users)
0 Members:

 



- Lo-Fi Version Support form
Copyrights and abuse reports form
Time is now: 28th March 2020 - 21:12:32