Welcome Guest ( Log In | Register )

> Narakah - Dark Light District (2020), Death Metal/Grindcore
post Mar 10 2020, 14:36:07
Post #1

Мегаманьяк
***********
Group: Металариец
Posts: 1,584
Releases: 271
On Forums: 12 years 2 months
Thanks: 5794 time(s)
Russian Federation


(IMG:http://metalarea.org/images/audiocovers/2020_Mar/acov_tid334789_thumb.jpg)

*Artist: Narakah
*Album: Dark Light District
*Year: 2020
*Genre: Death Metal/Grindcore
*Country: United States (IMG:http://metalarea.org/forum/style_images/flags/United%20States.png)
*Format: mp3@CBR320kbps
*Size: 38MB

Tracklist:
01. Grand Paradigm Warrior 01:40
02. Saturation Level 01:00
03. Migrate To Electronics 01:02
04. When Azazel Weeps 01:49
05. Gutting The Infamous 01:12
06. Davidian Haze 01:35
07. Dark Light District 01:19
08. Endless Waltz 01:38
09. Red Turtleneck 01:27
10. The Dreamshell 01:40
11. Unfamiliar Ceiling 01:50
******************************
Total playing time: 16:12



Extended info


Brutal deathgrind from Pittsburgh with ex-members of Firstdaydead, Acolyte, Prostitution, Shiro-Ishii, Hurtpiece, Meth Quarry, & Officeworker. 16 minutes of blasting & grooving creative chaos fueled by anime, manga, comics, video games, TV shows, movies, and books. Reviving the late 90's & early 2000's Pittsburgh style with new twists.

For fans of: As The Sun Sets (1st album), Discordance Axis, Deeds of Flesh, The Locust, Nasum, Living Sacrifice, Pyaemia, Internal Bleeding, Burnt By The Sun, Soils of Fate, & Severe Torture

Narakah is:
Chris Smith - Guitars, Visuals, Lyrics
Jason Spence - Blasts, Percussion, Samples
Adam Bailey - Vocals, Lyrics
Evan Kunkle - Bass

Recorded, mixed, & mastered February 2020 at Cerebral Audio by Shane Mayer
Additional vocals on this recording by Chris Smith & Jason Spence
Art, design, logo, and layout by Chris Smith for Grey Aria Design Studio
Back cover photography by Karl Salvini


Technical info
(IMG:http://metalarea.org/images/spectrogram/2020_Mar/ad2fcebbe74a29f2252696b21d3cf124.png)
Input File: 01-Grand Paradigm Warrior.mp3
Channels : 2
Sample Rate : 44100
Precision : 16-bit
Duration : 00:01:40.61 = 4436725 samples = 7545.45 CDDA sectors
File Size : 4.03M
Bit Rate : 320k
Sample Encoding: MPEG audio (layer I, II or III)
Comments :
Title=Grand Paradigm Warrior
Artist=Narakah
Album=Dark Light District
Tracknumber=1
Year=2020
Genre=Death Metal/Grindcore



Register


Go to the top of the page
  Insert nick Quick quote
+Quote Post
 
Start new topic
Replies (1 - 1)
post Mar 12 2020, 08:56:25
Post #2

Восемь Литров
********
Group: Металариец
Posts: 837
Releases: 1
From: APATIN, SERBIA, АПАТИН, СЕРБИЯ
On Forums: 13 years 3 months
Thanks: 1682 time(s)



Flac

Register
Go to the top of the page
  Insert nick Quick quote
+Quote Post

Reply to this topicStart new topic
1 User(s) are reading this topic (1 Guests and 0 Anonymous Users)
0 Members:

 



- Lo-Fi Version Support form
Copyrights and abuse reports form
Time is now: 25th January 2021 - 10:48:05