Welcome Guest ( Log In | Register )

> Winternius - Open The Portal (2020), Black Metal
post Mar 11 2020, 09:59:04
Post #1

Правь статус, ####!111
**************
Group: Металариец
Posts: 21,932
Releases: 15131
From: Г.Харьков
On Forums: 8 years 3 weeks
Thanks: 274637 time(s)
Unknown


(IMG:http://metalarea.org/images/audiocovers/2020_Mar/acov_tid334800_thumb.jpg)

*Artist: Winternius
*Album: Open The Portal
*Year: 2020
*Genre: Black Metal
*Country: Italy (IMG:http://metalarea.org/forum/style_images/flags/Italy.png)
*Format: mp3@CBR320kbps
*Size: 116MB

Tracklist:
1. Earthquake 06:02
2. Birds of Destruction 04:15
3. Dead and Evil 05:21
4. Blood Bones Death 04:58
5. Open the Portal 07:41
6. Eternal Starlight 04:27
7. Infernal Oak 06:16
8. Knight of Death and Life 03:48
9. Thunderfire 06:58
******************************
Total playing time: 49:46




Extended info
John KillerBob Bass
See also: Dynabyte, Killers Lodge, ex-Raza de Odio, ex-Cadaveria, ex-Necrodeath
Jaco Eligor Drums
See also: Hastur, Powerdrive, Malignance (live), ex-Sacradis
Alex Trivex Guitars
See also: Devastation Inc., ex-Hastur
Roby Grinder Guitars
See also: Hastur, Powerdrive, ex-Sfregio, ex-Sacradis
Jason Ulfe Vocals
See also: ex-Expiatoria


Technical info
(IMG:http://metalarea.org/images/spectrogram/2020_Mar/fc1567cae90015e4c53c3aa911f1f035.png)
Input File: 03 - Dead and Evil.mp3
Channels : 2
Sample Rate : 44100
Precision : 16-bit
Duration : 00:05:21.59 = 14182031 samples = 24119.1 CDDA sectors
File Size : 13.1M
Bit Rate : 326k
Sample Encoding: MPEG audio (layer I, II or III)
Comments :
Title=Dead and Evil
Artist=Winternius
Album=Open the Portal
Tracknumber=3
Year=2020



Register


Go to the top of the page
  Insert nick Quick quote
+Quote Post
 
Start new topic
Replies (1 - 5)
post Mar 11 2020, 12:27:56
Post #2

Правь статус, ####!111
**************
Group: Металариец
Posts: 21,932
Releases: 15131
From: Г.Харьков
On Forums: 8 years 3 weeks
Thanks: 274637 time(s)
Unknown


Cloud Mail 320
Register


Thanks:
Go to the top of the page
  Insert nick Quick quote
+Quote Post
post Mar 11 2020, 12:37:07
Post #3

Чёткий пацан из Автово...
Group Icon
Group: V.I.P
Posts: 9,013
Releases: 34
From: Город над вольной Невой...
On Forums: 13 years 11 months
Thanks: 4402 time(s)
Russian Federation


Господи, сперва прочитал Винтерсан, чуть не обделался)))
Go to the top of the page
  Insert nick Quick quote
+Quote Post
post Mar 11 2020, 19:32:21
Post #4

Правь статус, ####!111
**************
Group: Металариец
Posts: 21,932
Releases: 15131
From: Г.Харьков
On Forums: 8 years 3 weeks
Thanks: 274637 time(s)
Unknown


ЦИТАТА(Bloodn Lord @ 11th March 2020 - 13:37:07) *
сперва прочитал Винтерсан, чуть не обделался)))

Учись читать правильно или держи под рукой памперсы))


Thanks:
Go to the top of the page
  Insert nick Quick quote
+Quote Post
post Mar 12 2020, 15:34:59
Post #5

Правь статус, ####!111
**************
Group: Металариец
Posts: 3,016
Releases: 8
From: Dnipro
On Forums: 11 years 10 months
Thanks: 977 time(s)
Ukraine


ЦИТАТА(Bloodn Lord @ Mar 11 2020, 13:37:07) *
Господи, сперва прочитал Винтерсан, чуть не обделался)))

Сейчас Винтерсан такое выпускает что обделаться просто не реально.


Thanks:
Go to the top of the page
  Insert nick Quick quote
+Quote Post
post Mar 12 2020, 17:14:05
Post #6

The Angel Of Death
**************
Group: Металариец
Posts: 5,486
Releases: 49
From: Луганск, 13 регион, экс-404
On Forums: 14 years 6 months
Thanks: 1774 time(s)
Papua New Guinea


ЦИТАТА(Samaritianin @ 11th March 2020 - 11:59:04) *
Jaco Eligor Drums
See also: Hastur, Powerdrive, Malignance (live), ex-Sacradis

Roby Grinder Guitars
See also: Hastur, Powerdrive, ex-Sfregio, ex-Sacradis

срочно качаю: Sacradis очень люблю!
Go to the top of the page
  Insert nick Quick quote
+Quote Post

Reply to this topicStart new topic
1 User(s) are reading this topic (1 Guests and 0 Anonymous Users)
0 Members:

 



- Lo-Fi Version Support form
Copyrights and abuse reports form
Time is now: 3rd June 2020 - 10:57:01