Welcome Guest ( Log In | Register )

> Persefone - In Lak'ech [ep] (2018), Progressive/Melodic Death Metal
post Mar 11 2020, 17:57:03
Post #1

Правь статус, ####!111
**************
Group: Металариец
Posts: 2,016
Releases: 310
On Forums: 15 years 5 months
Thanks: 8074 time(s)
Russian Federation


(IMG:http://metalarea.org/images/audiocovers/2020_Mar/acov_tid334815_thumb.jpg)

*Artist: Persefone
*Album: In Lak'ech [ep]
*Year: 2018
*Genre: Progressive/Melodic Death Metal
*Country: Andorra (IMG:http://metalarea.org/forum/style_images/flags/Andorra.png)
*Format: mp3@CBR320kbps
*Size: 52MB

Tracklist:
01. In Lak'Ech 06:42
02. Stillness Is Timeless (instrumental) 09:37
03. Prison Skin (instrumental) Bonus track 06:24
******************************
Total playing time: 22:43



Extended info


Lineup:
Toni Mestre Coy "Fragment of Silence" Bass (2001-present)
Carlos Lozano Quintanilla "Rüdiger" Guitars (lead) (2001-present), Vocals (lead) (2001-2004)
Miguel Espinosa "Iawr" Keyboards, Vocals (2002-present)
Marc Martins Pia Vocals (lead) (2004-present)
Sergi Verdeguer Drums (2015-present)
Filipe Baldaia Guitars (2016-present)


Technical info
(IMG:http://metalarea.org/images/spectrogram/2020_Mar/47410c214c53e244afa393f807261fc4.png)
Input File: 02-Stillness is Timeless (Instrumental).mp3
Channels : 2
Sample Rate : 44100
Precision : 16-bit
Duration : 00:09:37.89 = 25484905 samples = 43341.7 CDDA sectors
File Size : 23.1M
Bit Rate : 320k
Sample Encoding: MPEG audio (layer I, II or III)
Comments :
Title=Stillness is Timeless (Instrumental)
Artist=Persefone
Album=In Lak'Ech (EP)
Tracknumber=2
Year=2018
Genre=Progressive/Melodic Death Metal



Register


Go to the top of the page
  Insert nick Quick quote
+Quote Post
 
Start new topic
Replies (1 - 4)
post Mar 12 2020, 17:23:10
Post #2

Правь статус, ####!111
**************
Group: Металариец
Posts: 2,016
Releases: 310
On Forums: 15 years 5 months
Thanks: 8074 time(s)
Russian Federation


FLAC tracks
Register


This post has been edited by VLADISLAV_V_K: Mar 14 2020, 08:43:39


Go to the top of the page
  Insert nick Quick quote
+Quote Post
post Mar 14 2020, 03:17:54
Post #3

грызущие вместе
*******
Group: Металариец
Posts: 737
Releases: 0
From: Moscow/MO
On Forums: 17 years 5 months
Thanks: 278 time(s)
Russian Federation


Что странно, во втором треке треск что в mp3, что во FLAC'е (хотя тут менее сильный). (IMG:style_emoticons/default/hmm.gif)
Go to the top of the page
  Insert nick Quick quote
+Quote Post
post Mar 14 2020, 08:48:30
Post #4

Правь статус, ####!111
**************
Group: Металариец
Posts: 2,016
Releases: 310
On Forums: 15 years 5 months
Thanks: 8074 time(s)
Russian Federation


ЦИТАТА(Dargaud @ 14th March 2020 - 05:17:54) *
во втором треке треск

Не знаю, почему так получилось... (IMG:style_emoticons/default/12.gif)
FLAC был с BandCamp, mp3, соответственно, делал с него.
Сейчас перекачал с другого источника, переделал, проверил, должно быть гуд.
Ссылки в шапке и посте все обновил.
Приношу извинения за доставленные неудобства. (IMG:style_emoticons/default/pray.gif)


Go to the top of the page
  Insert nick Quick quote
+Quote Post
post Nov 18 2021, 19:55:15
Post #5

Правь статус, ####!111
**************
Group: Металариец
Posts: 4,283
Releases: 1
From: Рейх
On Forums: 17 years 7 months
Thanks: 1061 time(s)
Ukraine


обновить
Go to the top of the page
  Insert nick Quick quote
+Quote Post

Reply to this topicStart new topic
1 User(s) are reading this topic (1 Guests and 0 Anonymous Users)
0 Members:

 



- Lo-Fi Version Support form
Copyrights and abuse reports form
Time is now: 17th April 2024 - 23:25:45