Welcome Guest ( Log In | Register )

> Правила / Rules

Тут только для чтения лежат низкобитрейтные (<192kbps) релизы, для которых есть аналоги в высокобитрейтных форумах.

Here goes (and stand in read only mode) low bitrate releases (<192kbps) which were already replaced by high bitrate releases in corresponding forums.

> Thorybos - Monuments Of Doom Revolved (2016), Black/Death Metal (D5)
post Mar 12 2020, 17:50:21
Post #1

н е д е л и м о е
**************
Group: Металариец
Posts: 2,461
Releases: 228
On Forums: 12 years 6 months
Thanks: 5119 time(s)
Russian Federation


(IMG:http://metalarea.org/images/audiocovers/2020_Mar/acov_tid334880_thumb.jpg)

*Artist: Thorybos
*Album: Monuments Of Doom Revolved
*Year: 2016
*Genre: Black/Death Metal
*Country: Germany (IMG:http://metalarea.org/forum/style_images/flags/Germany.png)
*Format: mp3@CBR128kbps (IMG:http://metalarea.org/images/bit_low.gif)
*Size: 33MB

Tracklist:
1. Anadolu Kavagh (Intromancy) 02:24
2. Bones 03:01
3. Apololeka 03:10
4. Orgiastic Rites Of Bacchanalia 03:26
5. Conqueror Of Gods Dominion 03:13
6. Blood Libation 03:19
7. Iudaea Capta 03:56
8. Downfall Of Masada 04:03
9. Scourged At The Pillar 02:37
10. From The Depths Of Desolation 03:54
11. Command Of The Iron Baphomet (Black Witchery Cover) (Bonus) 03:11
******************************
Total playing time: 36:14



Extended info
Re-recorded edition of the debut album "Monuments Of Doom Revealed" with two additonal tracks.


Technical info
(IMG:http://metalarea.org/images/spectrogram/2020_Mar/790d7a135e22c7403abecaeed6ad9551.png)
Input File: 02 - Bones.mp3
Channels : 2
Sample Rate : 44100
Precision : 16-bit
Duration : 00:03:01.96 = 8024392 samples = 13646.9 CDDA sectors
File Size : 2.91M
Bit Rate : 128k
Sample Encoding: MPEG audio (layer I, II or III)



Register


Go to the top of the page
  Insert nick Quick quote
+Quote Post
 
Start new topic
Replies (1 - 3)
post Mar 16 2020, 17:37:52
Post #2

De Mysteriis Dom Sathanas
**************
Group: Металариец
Posts: 4,789
Releases: 64
From: Doom
On Forums: 15 years 9 months
Thanks: 4251 time(s)
Russian Federation


Уже было обрадовался, а это-тупо переиздание с парой бонусов...такое себе
Go to the top of the page
  Insert nick Quick quote
+Quote Post
post Jun 17 2020, 09:32:45
Post #3

Group: Подсевший
Posts: 32
Releases: 0
On Forums: 9 years 9 months
Thanks: 1 time(s)
Unknown


320 please?


Thanks:
(1) Occultas,
Go to the top of the page
  Insert nick Quick quote
+Quote Post
post Jun 18 2020, 15:40:23
Post #4

Два Литра
**
Group: Завсегдатай
Posts: 174
Releases: 5
On Forums: 10 years 2 months
Thanks: 201 time(s)
Serbia


FLAC

Register


Thanks:
(1) Occultas,
Go to the top of the page
  Insert nick Quick quote
+Quote Post

Причина закрытия (Borderline1991 23-06-2020):
Closed TopicStart new topic
2 User(s) are reading this topic (2 Guests and 0 Anonymous Users)
0 Members:

 



- Lo-Fi Version Support form
Copyrights and abuse reports form
Time is now: 16th April 2024 - 09:04:54