Welcome Guest ( Log In | Register )

> И неформату есть предел.

Рэп/хип-хоп/шансон/поп удаляются. Для них есть свои порталы.

 
Reply to this topicStart new topic
> Yelworc - Trinity (2004), Dark Electro
post Mar 13 2020, 22:15:06
Post #1

Два Литра
**
Group: Завсегдатай
Posts: 192
Releases: 48
On Forums: 3 years 8 months
Thanks: 1104 time(s)
United States


(IMG:http://metalarea.org/images/audiocovers/2020_Mar/acov_tid334932_thumb.jpg)

*Artist: Yelworc
*Album: Trinity
*Year: 2004
*Genre: Dark Electro
*Country: Germany (IMG:http://metalarea.org/forum/style_images/flags/Germany.png)
*Format: mp3@CBR320kbps
*Size: 118MB

Tracklist:
1 Blaze Of Downfall
2 Doom Of Choronzon
3 Triune Junction
4 Prodigies Of Black
5 Vexilla Regis Inferni
6 Trinity
7 After Laughter
8 Bloodwhited
9 Caia's Curse
10 Revelation
11 D-Mask
12 Beast Tamer
13 Almighty Din
14 Thru Me
15 Pan*Demonium
16 Hellfaction
******************************
Total playing time: 1:17:05

(IMG:http://metalarea.org/images/youtube.png)

Technical info
(IMG:http://metalarea.org/images/spectrogram/2020_Mar/5c8906eb727fed43f40292c84155b2b7.png)
Input File: 02 Doom Of Choronzon.mp3
Channels : 2
Sample Rate : 44100
Precision : 16-bit
Duration : 00:05:14.51 = 13869803 samples = 23588.1 CDDA sectors
File Size : 12.6M
Bit Rate : 320k
Sample Encoding: MPEG audio (layer I, II or III)
Comments :
Title=Doom Of Choronzon
Artist=yelworC
Album=Trinity
Tracknumber=02
Year=2004
Genre=Electronic



Register


Go to the top of the page
  Insert nick Quick quote
+Quote Post

Reply to this topicStart new topic
1 User(s) are reading this topic (1 Guests and 0 Anonymous Users)
0 Members:

 



- Lo-Fi Version Support form
Copyrights and abuse reports form
Time is now: 6th April 2020 - 05:31:54