Welcome Guest ( Log In | Register )

> Goretrade - Regressive Entities (2019), Brutal Death Metal
post Mar 14 2020, 02:58:18
Post #1

Правь статус, ####!111
**************
Group: Металариец
Posts: 22,282
Releases: 15430
From: Г.Харьков
On Forums: 8 years 1 month
Thanks: 282265 time(s)
Unknown


(IMG:http://metalarea.org/images/audiocovers/2020_Mar/acov_tid334938_thumb.jpg)

*Artist: Goretrade
*Album: Regressive Entities
*Year: 2019
*Genre: Brutal Death Metal
*Country: Colombia (IMG:http://metalarea.org/forum/style_images/flags/Colombia.png)
*Format: mp3@CBR320kbps
*Size: 109MB

Tracklist:
1. The Origin
2. Surrounded by Demons
3. The Sounds of Mourning
4. While You Pray
5. The Archon's Domain
6. Irreverent Salvation
7. There's No Heaven
8. Only the Blood
9. Falling Down Again
10. Synchronized with Fear
11. Kill Withour Blink
12. Serenity Is Not Included
13. Something Haunt Us
14. The Awareness of Predator
******************************
Total playing time: 46:32



Extended info
Mauro Mazuera Drums
See also: Absolution Denied, Impure Faith, Souledge, Sagros (live), ex-DeadMinds, ex-Evil Darkness, ex-InnerHate, ex-Twilight Glimmer, ex-Eshtadur (live), ex-Genetic Error (live)
César Vera Guitars, Vocals
See also: ex-Carnivore Diprosopus
Julian Gil Guitars
See also: DeadMinds, Evenlost, Genetic Error, Ingrand, Kariwa, The Scum, Perpetual Warfare (live), Liturgia, ex-Luciferian, ex-Eshtadur (live)
Mike Escobar Bass (2013-present)
See also: Internal Suffering (live), ex-Carnivore Diprosopus, ex-Human Violence, ex-Neurosis, ex-Unscarred Bleeding, ex-Shattered (Col)


Technical info
(IMG:http://metalarea.org/images/spectrogram/2020_Mar/9e541bc8565eeb715ee1345c6c2c0f21.png)
Input File: 06. Irreverent Salvation.mp3
Channels : 2
Sample Rate : 44100
Precision : 16-bit
Duration : 00:03:34.90 = 9477002 samples = 16117.4 CDDA sectors
File Size : 8.87M
Bit Rate : 330k
Sample Encoding: MPEG audio (layer I, II or III)
Comments :
Title=Irreverent Salvation
Artist=Goretrade
Album=Regressive Entities (320)
Tracknumber=06/14
Year=2019
Genre=Brutal Death Metal



Register


Go to the top of the page
  Insert nick Quick quote
+Quote Post
 
Start new topic
Replies (1 - 3)
post Mar 16 2020, 09:56:06
Post #2

Шесть Литров
******
Group: Металариец
Posts: 628
Releases: 0
From: APATIN, SERBIA, АПАТИН, СЕРБИЯ
On Forums: 12 years 8 months
Thanks: 1029 time(s)



Flac

Register


Go to the top of the page
  Insert nick Quick quote
+Quote Post
post Mar 24 2020, 17:45:03
Post #3

Правь статус, ####!111
**************
Group: Металариец
Posts: 3,944
Releases: 14
From: Москва и МО
On Forums: 14 years 6 days
Thanks: 1152 time(s)
Russian Federation


Долго от них ничего не было слышно.
Люблю этих колумбийцев. Собственно, добротно нарубили, хоть и ничего особенного.
Go to the top of the page
  Insert nick Quick quote
+Quote Post
post Mar 25 2020, 13:07:05
Post #4

Правь статус, ####!111
**************
Group: Металариец
Posts: 3,944
Releases: 14
From: Москва и МО
On Forums: 14 years 6 days
Thanks: 1152 time(s)
Russian Federation


P.S. Что-то в этот раз на полпрослушки хватило. Не очень интересно все это стало.
Go to the top of the page
  Insert nick Quick quote
+Quote Post

Reply to this topicStart new topic
1 User(s) are reading this topic (1 Guests and 0 Anonymous Users)
0 Members:

 



- Lo-Fi Version Support form
Copyrights and abuse reports form
Time is now: 8th July 2020 - 08:29:35