Welcome Guest ( Log In | Register )

> Forum rules / Правила раздела

Here go releases which can't go to New releases forums due lack of information, stolen links or incorrect data and just founded in other sites links with minimum info. Reissue of this releases through Add release form with added/corrected data, info and own links highly welcomed.

Сюда уходят релизы, не пропущенные в основные релизные форумы по причинам отсутствия, недостаточности или неверности/некорректности сопровождающей информации, содержащие ссылки, указывающие на файлы, залитые не автором темы, а так же просто найденные где-то ссылки с минимумом информации. Переоформление тем отсюда через форму Добавления релиза с перезаливкой ссылок крайне приветствуется.

> Redwood Hill - Ender (2020), Post-Black Metal/Sludge (D)
post Mar 14 2020, 09:56:36
Post #1

Время Мары
**************
Group: Металариец
Posts: 3,239
Releases: 471
From: Харьков
On Forums: 12 years 2 weeks
Thanks: 9665 time(s)
Ukraine


(IMG:http://metalarea.org/images/audiocovers/2020_Mar/acov_tid334942_thumb.jpg)

*Artist: Redwood Hill
*Album: Ender
*Year: 2020
*Genre: Post-Black Metal/Sludge
*Country: Denmark (IMG:http://metalarea.org/forum/style_images/flags/Denmark.png)
*Format: mp3@CBR320kbps
*Size: 157MB

Tracklist:
01. Singularity (10:08)
02. No Horizon (7:28)
03. Descender (2:44)
04. Nihil (5:38)
05. Leben (7:10)
06. Black Heart (5:55)
07. Absence (7:02)
08. Collider (3:28)
09. Polar (7:23)
10. The Passage (7:51)
11. Ender (3:21)
******************************
Total playing time: 1:08:10

Technical info
(IMG:http://metalarea.org/images/spectrogram/2020_Mar/bbbc912340ddbbfe99094fbfa0f2ade9.png)
Input File: 7 - Absence.mp3
Channels : 2
Sample Rate : 44100
Precision : 16-bit
Duration : 00:07:02.19 = 18618623 samples = 31664.3 CDDA sectors
File Size : 17.0M
Bit Rate : 321k
Sample Encoding: MPEG audio (layer I, II or III)
Comments :
Title=Absence
Artist=Redwood Hill
Album=Ender
Tracknumber=7
Year=2020
Genre=Metal
Discnumber=1



Register


Go to the top of the page
  Insert nick Quick quote
+Quote Post
 
Start new topic
Replies (1 - 8)
post Jun 25 2020, 12:56:29
Post #2

Ледоруб
**************
Group: Металариец
Posts: 28,232
Releases: 0
From: Санкт-Петербург
On Forums: 11 years 9 months
Thanks: 10190 time(s)
Russian Federation


А чего в файнде? Давайте уже в приличный раздел перенесём и ссылочки обновим.
Go to the top of the page
  Insert nick Quick quote
+Quote Post
post Jun 25 2020, 12:58:30
Post #3

Правь статус, ####!111
**************
Group: Металариец
Posts: 48,888
Releases: 834
On Forums: 12 years 3 weeks
Thanks: 43669 time(s)
Russian Federation


Ссылка фурычит.
Go to the top of the page
  Insert nick Quick quote
+Quote Post
post Jun 25 2020, 13:00:11
Post #4

Ледоруб
**************
Group: Металариец
Posts: 28,232
Releases: 0
From: Санкт-Петербург
On Forums: 11 years 9 months
Thanks: 10190 time(s)
Russian Federation


ЦИТАТА(vosmidesijatye @ 25th June 2020 - 14:58:30) *
Ссылка фурычит.

Нужны альтернативы. Не мне. И в раздел нормальный перенести.
Go to the top of the page
  Insert nick Quick quote
+Quote Post
post Jun 25 2020, 13:13:14
Post #5

Правь статус, ####!111
**************
Group: Металариец
Posts: 48,888
Releases: 834
On Forums: 12 years 3 weeks
Thanks: 43669 time(s)
Russian Federation


ЦИТАТА(6666666 @ Jun 2 2020, 16:00:11) *
И в раздел нормальный перенести.


Оформление тогда надо исправить.
Go to the top of the page
  Insert nick Quick quote
+Quote Post
post Jun 25 2020, 13:13:38
Post #6

Ледоруб
**************
Group: Металариец
Posts: 28,232
Releases: 0
From: Санкт-Петербург
On Forums: 11 years 9 months
Thanks: 10190 time(s)
Russian Federation


ЦИТАТА(vosmidesijatye @ 25th June 2020 - 15:13:14) *
Оформление тогда надо исправить.

Пусть исправляют.
Go to the top of the page
  Insert nick Quick quote
+Quote Post
post Jan 11 2021, 15:25:45
Post #7

FOLK METAL FEVER
**************
Group: Металариец
Posts: 2,222
Releases: 6
From: Kyiv
On Forums: 13 years 7 months
Thanks: 290 time(s)
Ukraine


Добротный музон. Плотно и мелодично.


Thanks:
(1) MeatWolf,
Go to the top of the page
  Insert nick Quick quote
+Quote Post
post Jan 11 2021, 15:46:38
Post #8

Волк без яблока
**************
Group: Металариец
Posts: 13,601
Releases: 108
From: Санкт-Петербург
On Forums: 14 years 9 months
Thanks: 15872 time(s)
Russian Federation


Отличный альбом, чем-то отдалённо напомнило даже Ghost Brigade.
Go to the top of the page
  Insert nick Quick quote
+Quote Post
post Jan 11 2021, 21:27:29
Post #9

Ледоруб
**************
Group: Металариец
Posts: 28,232
Releases: 0
From: Санкт-Петербург
On Forums: 11 years 9 months
Thanks: 10190 time(s)
Russian Federation


И из файнда так не перенесли.
Go to the top of the page
  Insert nick Quick quote
+Quote Post

Reply to this topicStart new topic
2 User(s) are reading this topic (2 Guests and 0 Anonymous Users)
0 Members:

 



- Lo-Fi Version Support form
Copyrights and abuse reports form
Time is now: 25th June 2021 - 11:08:46