Welcome Guest ( Log In | Register )

> Ethir Anduin - Pathway To Eternity. The Agony (2020), Black/Doom Metal
post Mar 16 2020, 15:44:23
Post #1

Маньяк
**********
Group: Металариец
Posts: 1,114
Releases: 940
From: Новороссийск
On Forums: 10 years 3 months
Thanks: 18280 time(s)
Russian Federation


(IMG:https://metalarea.org/images/audiocovers/2020_Mar/acov_tid334989_thumb.jpg)

*Artist: Ethir Anduin
*Album: Pathway To Eternity. The Agony
*Year: 2020
*Genre: Black/Doom Metal
*Country: Russian Federation (IMG:https://metalarea.org/forum/style_images/flags/Russian%20Federation.png)
*Format: mp3@CBR320kbps
*Size: 185MB

Tracklist:
01. Awareness Of The Frailty Of Being 11:13
02. Pandemonium 09:54
03. The Invisible Veil Of The Cold Silence 11:14
04. The Agony 08:30
05. Eternal Shining Star 08:50
06. Beneath The Ruins 08:16
07. The Universe Hears Everything 10:07
08. Last Struggle 13:02
******************************
Total playing time: 1:21:09



Extended info





Technical info
(IMG:https://metalarea.org/images/spectrogram/2020_Mar/a312e9a2ad7850a7c7d6b4df7c262cdc.png)
Input File: 01. Awareness Of Frailty Of Being.mp3
Channels : 2
Sample Rate : 48000
Precision : 16-bit
Duration : 00:11:13.63 = 32334480 samples ~ 50522.6 CDDA sectors
File Size : 26.9M
Bit Rate : 320k
Sample Encoding: MPEG audio (layer I, II or III)
Comments :
Title=Awareness Of The Frailty Of Being
Artist=Ethir Anduin
Album=Pathway To Eternity. The Agony
Tracknumber=01
Year=2020
Genre=Black Metal



Register


Go to the top of the page
  Insert nick Quick quote
+Quote Post
 
Start new topic
Replies (1 - 5)
post Mar 16 2020, 21:49:12
Post #2

Маньяк
**********
Group: Металариец
Posts: 1,119
Releases: 0
On Forums: 10 years 2 months
Thanks: 539 time(s)
Unknown


Mirror please?


Go to the top of the page
  Insert nick Quick quote
+Quote Post
post Mar 17 2020, 00:45:02
Post #3

Восемь Литров
********
Group: Металариец
Posts: 880
Releases: 0
From: South Of Heaven
On Forums: 14 years 6 days
Thanks: 420 time(s)
Ukraine


ЦИТАТА(Ostinato @ 16th March 2020 - 22:49:12) *
Mirror please?

Mega.nz :
Register


Go to the top of the page
  Insert nick Quick quote
+Quote Post
post Mar 18 2020, 18:38:55
Post #4

Восемь Литров
********
Group: Металариец
Posts: 811
Releases: 2
On Forums: 10 years 10 months
Thanks: 354 time(s)
Poland


жэнщина на вокалах.очень много всего намешано. как будто BALANCE INTERRUPTION напомнило но тут чем дальше в лес тем больше дров


Thanks:
Go to the top of the page
  Insert nick Quick quote
+Quote Post
post Mar 18 2020, 18:53:39
Post #5

кручу наждак
**************
Group: Металариец
Posts: 5,056
Releases: 104
From: Самара
On Forums: 11 years 2 months
Thanks: 4083 time(s)
Russian Federation


Сохранил в закладках, но пока чота хронометраж пугает.
Go to the top of the page
  Insert nick Quick quote
+Quote Post
post Mar 25 2021, 17:52:24
Post #6

Мегаманьяк
***********
Group: Металариец
Posts: 1,567
Releases: 14
From: Москва
On Forums: 13 years 3 months
Thanks: 1003 time(s)
Antarctica


Не знаю, чего я вообще захотел это послушать, наверно на обложку повелся. Очень нудно и скучно. Только одна обложка и прикольная.
Go to the top of the page
  Insert nick Quick quote
+Quote Post

Reply to this topicStart new topic
2 User(s) are reading this topic (2 Guests and 0 Anonymous Users)
0 Members:

 



- Lo-Fi Version Support form
Copyrights and abuse reports form
Time is now: 4th August 2021 - 14:19:42