Welcome Guest ( Log In | Register )

Объявления

* gmail.com упорно продолжает считать почту с нас "unsolicited" и отбивает в том числе и письма активации, поэтому просьба использовать альтернативные почтовые ящики.
------------
* gmail.com continues reject all mail from us as "unsolicited" (activation mails too) therefore please use alternate mail servers.
> No Raza - Transcending Material Sins (2020), Death Metal
post Mar 19 2020, 11:57:32
Post #1

Правь статус, ####!111
**************
Group: Металариец
Posts: 36,414
Releases: 27151
From: Г.Харьков
On Forums: 12 years 2 months
Thanks: 591383 time(s)
Ukraine


(IMG:https://metalarea.org/images/audiocovers/2020_Mar/acov_tid335055_thumb.jpg)

*Artist: No Raza
*Album: Transcending Material Sins
*Year: 2020
*Genre: Death Metal
*Country: Colombia (IMG:https://metalarea.org/forum/style_images/flags/Colombia.png)
*Format: mp3@CBR320kbps
*Size: 126MB

Tracklist:
1. On the Verge of Dying Out 06:04
2. Ancient Wars 04:22
3. Reborn 05:09
4. Fratricide 05:17
5. Sail in Rot 04:39
6. Alteración mental 04:05
7. Decontamination 05:27
8. Scorn 05:02
9. Atrición 05:56
10. En carne y hueso 06:01
11. Transcending Material Sins 02:48
******************************
Total playing time: 54:50




Extended info
Mike Spillane Bass
Jairo Gómez Drums
Juan Guillermo Cano Vocals, Guitars
Juan Camilo Sanchez Guitars (lead) (2014-present)
See also: Isis, ex-Proxima Centaury


Technical info
(IMG:https://metalarea.org/images/spectrogram/2020_Mar/68efa09ac35c753d04dcbdf3e8d8789a.png)
Input File: 4 - Fratricide.mp3
Channels : 2
Sample Rate : 44100
Precision : 16-bit
Duration : 00:05:18.01 = 14024197 samples = 23850.7 CDDA sectors
File Size : 12.8M
Bit Rate : 322k
Sample Encoding: MPEG audio (layer I, II or III)
Comments :
Title=Fratricide
Artist=No Raza
Album=Transcending Material Sins
Tracknumber=4
Year=2020
Genre=Rock / Hard Rock / Metal
Discnumber=1



Register


Go to the top of the page
  Insert nick Quick quote
+Quote Post
 
Start new topic
Replies (1 - 5)
post Mar 20 2020, 03:35:41
Post #2

Правь статус, ####!111
**************
Group: Металариец
Posts: 36,414
Releases: 27151
From: Г.Харьков
On Forums: 12 years 2 months
Thanks: 591383 time(s)
Ukraine


Cloud Mail 320
Register


Go to the top of the page
  Insert nick Quick quote
+Quote Post
post Mar 22 2020, 20:37:50
Post #3

Два Литра
**
Group: Завсегдатай
Posts: 127
Releases: 0
On Forums: 16 years 1 month
Thanks: 24 time(s)
Russian Federation


Местами затянуто но в целом приличный музон , соляки приятные и звук сочный!!!


Thanks:
Go to the top of the page
  Insert nick Quick quote
+Quote Post
post Mar 28 2020, 08:11:30
Post #4

Два Литра
**
Group: Завсегдатай
Posts: 122
Releases: 0
On Forums: 15 years 2 months
Thanks: 13 time(s)
Russian Federation


отличная команда , этот опус зашёл просто на ура !!! попали в настроение !!!
Go to the top of the page
  Insert nick Quick quote
+Quote Post
post Apr 3 2020, 12:41:18
Post #5

Да прибудет с Вами сила Z
**************
Group: Металариец
Posts: 20,438
Releases: 26
On Forums: 16 years 2 weeks
Thanks: 11693 time(s)
Russian Federation


Go to the top of the page
  Insert nick Quick quote
+Quote Post
post Apr 15 2020, 06:52:57
Post #6

кручу наждак
**************
Group: Металариец
Posts: 6,624
Releases: 111
From: Самара
On Forums: 14 years 2 months
Thanks: 5172 time(s)
Russian Federation


Альбому ощутимо не хватает драйва. Больше половины песен состоит из насквозь вторичных риффов, выдержанных в усыпляющем среднем темпе, и это просто невыносимо.
По большому счету альбом вытаскивают немногие скоростные треки. Вот они звучат по-настоящему угарно. Оставили бы только их - получилась бы клевая ипишка.
Go to the top of the page
  Insert nick Quick quote
+Quote Post

Reply to this topicStart new topic
1 User(s) are reading this topic (1 Guests and 0 Anonymous Users)
0 Members:

 



- Lo-Fi Version Support form
Copyrights and abuse reports form
Time is now: 16th July 2024 - 10:08:22