Welcome Guest ( Log In | Register )

> Decaying Purity - Mass Extinction Of The Providential Ones (2020), Brutal Death Metal
post Mar 20 2020, 19:00:09
Post #1

Правь статус, ####!111
**************
Group: Металариец
Posts: 22,363
Releases: 15498
From: Г.Харьков
On Forums: 8 years 2 months
Thanks: 283814 time(s)
Unknown


(IMG:http://metalarea.org/images/audiocovers/2020_Mar/acov_tid335125_thumb.jpg)

*Artist: Decaying Purity
*Album: Mass Extinction Of The Providential Ones
*Year: 2020
*Genre: Brutal Death Metal
*Country: Turkey (IMG:http://metalarea.org/forum/style_images/flags/Turkey.png)
*Format: mp3@CBR320kbps
*Size: 76MB

Tracklist:
01. Darkness Falling Down Through the Skies
02. Streams Of Fire and Blood
03. Exhuming Ancient Species
04. Storms of Chaos
05. The Depths of Mass Graves
06. Summoning the Creatures of Doom
07. The Vicious Circle of Punishment
08. Eternal Wish of Death
09. Arrival of the Merciless Destroyer
******************************
Total playing time: 32:05




Extended info
Malik Bass
Onur Drums
Mustafa Guitars
Serkan Vocals



Technical info
(IMG:http://metalarea.org/images/spectrogram/2020_Mar/f333649da92a5f8b7e5e78ce202d37da.png)
Input File: 05. The Depths of Mass Graves.mp3
Channels : 2
Sample Rate : 44100
Precision : 16-bit
Duration : 00:03:54.18 = 10327206 samples = 17563.3 CDDA sectors
File Size : 9.56M
Bit Rate : 327k
Sample Encoding: MPEG audio (layer I, II or III)
Comments :
Title=The Depths of Mass Graves
Artist=Decaying Purity
Album=Mass Extinction of the Providential Ones
Tracknumber=5
Year=2020



Register


Go to the top of the page
  Insert nick Quick quote
+Quote Post
 
Start new topic
Replies (1 - 4)
post Mar 21 2020, 08:31:00
Post #2

Шесть Литров
******
Group: Металариец
Posts: 632
Releases: 0
From: APATIN, SERBIA, АПАТИН, СЕРБИЯ
On Forums: 12 years 8 months
Thanks: 1048 time(s)



Flac

Register


Go to the top of the page
  Insert nick Quick quote
+Quote Post
post Apr 9 2020, 22:02:59
Post #3

Правь статус, ####!111
**************
Group: Металариец
Posts: 3,957
Releases: 14
From: Москва и МО
On Forums: 14 years 2 weeks
Thanks: 1156 time(s)
Russian Federation


Видел в дэтовой голосовалке упоминания этого альбома как чуть ли не лучшим за 2020.
Сколько подходов ни делал, лучше, чем хорошо, не скажу. Плюс мне не очень по душе такая однообразная манера подачи. Хорошо слушается, но не более.


Thanks:
Go to the top of the page
  Insert nick Quick quote
+Quote Post
post May 7 2020, 07:02:06
Post #4

Crush! Kill! Destroy!
**************
Group: Металариец
Posts: 5,411
Releases: 15
From: Kaliningrad
On Forums: 12 years 7 months
Thanks: 5059 time(s)
Russian Federation


Насчет лучшего не уверен, но дело свое османы знают крепко. Не скучно, забористо. Хороший альбом.
Go to the top of the page
  Insert nick Quick quote
+Quote Post
post May 7 2020, 08:05:23
Post #5

Full-of-Hate
**************
Group: Металариец
Posts: 3,716
Releases: 0
From: Moscow
On Forums: 11 years 2 weeks
Thanks: 3525 time(s)
Russian Federation


Эта шайка стамбульских аниматоров писала материал шесть лет и выдала достаточно заурядную пластинку. Вернее, она вписывается в балльную шкалу между "нормально" и "хорошо", но точно не выше и точно не в топ. Достаточно крепкий брутал, восприятию которого мешает кашеобразный скрипучий саунд, прямо скажем - специфично. В силу чего многообразие рифов и ритмических рисунков видится мне бестолковым нагромождением и сумбуром нежели продвинутой композиторской работой. Выше головы точно не прыгнули, да и уже, наверное, никогда не прыгнуть. Буду слушать еще.

Вместо обложки - эконом мазня левой ногой от Paolo Girardi. Вот здесь точно незачёт. И не за плохой рисунок, а за то что банда выбрала самый дешевый.
Go to the top of the page
  Insert nick Quick quote
+Quote Post

Reply to this topicStart new topic
2 User(s) are reading this topic (2 Guests and 0 Anonymous Users)
0 Members:

 



- Lo-Fi Version Support form
Copyrights and abuse reports form
Time is now: 16th July 2020 - 05:16:14