Welcome Guest ( Log In | Register )

Объявления

* gmail.com упорно продолжает считать почту с нас "unsolicited" и отбивает в том числе и письма активации, поэтому просьба использовать альтернативные почтовые ящики.
------------
* gmail.com continues reject all mail from us as "unsolicited" (activation mails too) therefore please use alternate mail servers.
> Wolfarian - Beyond The Ninth Wave (2019), Folk Metal
post Mar 23 2020, 08:48:55
Post #1

Правь статус, ####!111
**************
Group: Металариец
Posts: 36,412
Releases: 27150
From: Г.Харьков
On Forums: 12 years 2 months
Thanks: 591289 time(s)
Ukraine


(IMG:http://metalarea.org/images/audiocovers/2020_Mar/acov_tid335204_thumb.jpg)

*Artist: Wolfarian
*Album: Beyond The Ninth Wave
*Year: 2019
*Genre: Folk Metal
*Country: Czech Republic (IMG:http://metalarea.org/forum/style_images/flags/Czech%20Republic.png)
*Format: mp3@CBR320kbps
*Size: 90MB

Tracklist:
1. Beyond the Ninth Wave 01:50
2. Dhá Lasair 05:07
3. Old Traveller 05:52
4. The Valley 04:58
5. Not Today 03:24
6. Failte 02:17
7. The Moon and the River 04:16
8. Beneath the Hill 04:52
9. Farewell 08:18
******************************
Total playing time: 40:54

Preview 1


Extended info
Tonda "Gabriel" Buček Guitars
Hana Hrubešová Vocals
Tomáš Jalůvka Drums
Radek Krejčí Keyboards
Pavel Křenek Violin
Karel Peltán Vocals



Technical info
(IMG:http://metalarea.org/images/spectrogram/2020_Mar/2cc07f839fe351753b88da8087161597.png)
Input File: 03 - Old Traveller.mp3
Channels : 2
Sample Rate : 44100
Precision : 16-bit
Duration : 00:05:41.52 = 15060988 samples = 25613.9 CDDA sectors
File Size : 13.7M
Bit Rate : 320k
Sample Encoding: MPEG audio (layer I, II or III)
Comments :
Title=Old Traveller
Artist=Wolfarian
Album=Beyond the Ninth Wave
Tracknumber=3
Year=2019
Genre=Metal



Register


Go to the top of the page
  Insert nick Quick quote
+Quote Post
 
Start new topic
Replies (1 - 2)
post Mar 23 2020, 23:35:50
Post #2

Шесть Литров
******
Group: Металариец
Posts: 591
Releases: 26
On Forums: 15 years 1 month
Thanks: 579 time(s)
Chile


Thanks (IMG:style_emoticons/default/dwarf-1.gif)


Thanks:
Go to the top of the page
  Insert nick Quick quote
+Quote Post
post Mar 24 2020, 21:48:24
Post #3

Шесть Литров
******
Group: Металариец
Posts: 602
Releases: 10
From: минск сити
On Forums: 15 years 2 weeks
Thanks: 1037 time(s)
Belarus


глянул превью.. что-то не то: вокалистка с росходящимся косоглазием\гроулинг не внятный\мелодии мажорные\флейтистка еврейка. короче у меня плохое настроение и я видимо закороновирусил, но это какое то уг.
ps забыл про вокал женский... она много выкрикивает слова, а не поёт.
Go to the top of the page
  Insert nick Quick quote
+Quote Post

Reply to this topicStart new topic
2 User(s) are reading this topic (2 Guests and 0 Anonymous Users)
0 Members:

 



- Lo-Fi Version Support form
Copyrights and abuse reports form
Time is now: 15th July 2024 - 22:43:39