Welcome Guest ( Log In | Register )

 
Reply to this topicStart new topic
> Scheissegal - Freunde Der Nacht (1997), Thrash Metal
post Mar 25 2020, 13:18:43
Post #1

Подвал
**************
Group: Металариец
Posts: 14,773
Releases: 8374
From: Far East (Khabarovsk)
On Forums: 11 years 5 months
Thanks: 86859 time(s)
Russian Federation


(IMG:http://metalarea.org/images/audiocovers/2020_Mar/acov_tid335285_thumb.jpg)

*Artist: Scheissegal
*Album: Freunde Der Nacht
*Year: 1997
*Genre: Thrash Metal
*Country: Germany (IMG:http://metalarea.org/forum/style_images/flags/Germany.png)
*Format: mp3@CBR192kbps
*Size: 93MB

Tracklist:
1. Du 04:59
2. Dammbruch '91 04:06
3. Come With Me 05:10
4. The Killing Has Begun 06:18
5. Meine Axt Und Ich 05:22
6. Freunde Der Nacht 06:58
7. Max Anders 07:43
8. Terror 04:43
9. Scheißegal 02:29
10. Söldner Des Todes 06:22
11. Fünf Nach Zwölf 10:03
12. Blau 01:21
13. Mehr Bier!!! 03:07
14. Dreck 00:05
15. Dreck 00:03
******************************
Total playing time: 1:08:49

Extended info
The band name is a German adjective that can be translated as "doesn't fucking matter".


Technical info
(IMG:http://metalarea.org/images/spectrogram/2020_Mar/00eb52f889ee8b9d2c5dbea8a5e8233e.png)
Input File: 01-Du.mp3
Channels : 2
Sample Rate : 44100
Precision : 16-bit
Duration : 00:04:57.99 = 13141491 samples = 22349.5 CDDA sectors
File Size : 7.15M
Bit Rate : 192k
Sample Encoding: MPEG audio (layer I, II or III)
Comments :
Title=Du
Artist=Scheissegal (Ger)
Album=Freunde der Nacht
Tracknumber=01
Year=1997
Genre=Thrash Metal



Register


Go to the top of the page
  Insert nick Quick quote
+Quote Post

Reply to this topicStart new topic
2 User(s) are reading this topic (2 Guests and 0 Anonymous Users)
0 Members:

 



- Lo-Fi Version Support form
Copyrights and abuse reports form
Time is now: 8th July 2020 - 08:21:19