Welcome Guest ( Log In | Register )

 
Reply to this topicStart new topic
> Degrade - Bloody Shit [demo] (1995), Death Metal/Grindcore (D7)
post Mar 25 2020, 13:37:58
Post #1

Подвал
**************
Group: Металариец
Posts: 14,633
Releases: 8290
From: Far East (Khabarovsk)
On Forums: 11 years 4 months
Thanks: 85917 time(s)
Russian Federation


(IMG:http://metalarea.org/images/audiocovers/2020_Mar/acov_tid335287_thumb.jpg)

*Artist: Degrade
*Album: Bloody Shit [demo]
*Year: 1995
*Genre: Death Metal/Grindcore
*Country: Russian Federation (IMG:http://metalarea.org/forum/style_images/flags/Russian%20Federation.png)
*Format: mp3@CBR192kbps
*Size: 37MB

Tracklist:
1. Necroecstase 02:49
2. Perversions Propagande 03:00
3. Cocks Introdaction In Lanch Of Extremente 01:28
4. Steb Rasul 01:36
5. About The War (including S.O.D. tunes) 04:55
6. Fuck Till Death!!! 03:22
7. Propagande 03:19
8. Sex Terror 03:49
9. Eiphory 02:57
******************************
Total playing time: 27:15

Extended info
Band from Kotovo, Volgograd Oblast.
Rehearsal mostly humor recording.


Technical info
(IMG:http://metalarea.org/images/spectrogram/2020_Mar/65ed7c2346948137e40f319d6a45fca3.png)
Input File: 01-Necroecstase.mp3
Channels : 2
Sample Rate : 44100
Precision : 16-bit
Duration : 00:02:49.78 = 7487298 samples = 12733.5 CDDA sectors
File Size : 4.08M
Bit Rate : 192k
Sample Encoding: MPEG audio (layer I, II or III)
Comments :
Title=Necroecstas
Artist=Degrade
Album=Bloody Shit (Demo)
Tracknumber=01
Year=1995
Genre=Death Metal



Register


Go to the top of the page
  Insert nick Quick quote
+Quote Post

Reply to this topicStart new topic
2 User(s) are reading this topic (2 Guests and 0 Anonymous Users)
0 Members:

 



- Lo-Fi Version Support form
Copyrights and abuse reports form
Time is now: 29th May 2020 - 12:03:34