Welcome Guest ( Log In | Register )

 
Reply to this topicStart new topic
> Massacre - 5/2/1987 Rehearsal [bootleg] (2011), Old School Death Metal (D)
post Mar 25 2020, 14:15:36
Post #1

Семь Литров
*******
Group: Металариец
Posts: 786
Releases: 166
On Forums: 1 year 7 months
Thanks: 2086 time(s)
Canada


(IMG:https://metalarea.org/images/audiocovers/2020_Mar/acov_tid335288_thumb.jpg)

*Artist: Massacre
*Album: 5/2/1987 Rehearsal [bootleg]
*Year: 2011
*Genre: Old School Death Metal
*Country: United States (IMG:https://metalarea.org/forum/style_images/flags/United%20States.png)
*Format: mp3@CBR320kbps
*Size: 107MB

Tracklist:
1. Dawn Of Eternity 04:35
2. Cryptic Realms 04:42
3. Symbolic Immortality 03:36
4. The Succubus 03:01
5. Defeat Remains04:30
6. Plains Of Insanity 05:06
7. Infestation Of Death 04:21
8. From Beyond [cut off] 02:20
9. From Beyond (Take Two) 05:16
10. Provoked Accurser 05:36
11. Biohazard [cut off-fades out] 03:43
******************************
Total playing time: 46:46

Extended info
MASSACRE February 5th, 1987
Massacre 1987-02-05 Rehearsal

https://www.metal-archives.com/bands/Massacre/281

"Massacre ‎– 5/2/1987 Rehearsal" Bootleg vinyl [DBL-LP] (2011)

For diehard fans only.
Glitches appear in the final tracks with noticeable surface noise and pops.

https://www.discogs.com/Massacre-521987-Rehearsal/release/3915684

Label: Not On Label (Massacre) ‎– none
Format:2 × Vinyl, LP, Limited Edition, Unofficial Release, White
Country:US
Released:2011


Technical info
(IMG:https://metalarea.org/images/spectrogram/2020_Mar/80a08cc37a988cd5b8a43557a72f6920.png)
Input File: 08. From Beyond [cut off].mp3
Channels : 2
Sample Rate : 44100
Precision : 16-bit
Duration : 00:02:20.73 = 6206149 samples = 10554.7 CDDA sectors
File Size : 5.65M
Bit Rate : 321k
Sample Encoding: MPEG audio (layer I, II or III)
Comments :
Artist=Massacre (US-FL)
Album=1987-02-05 Rehearsal Bootleg LP
Year=1987
Genre=Old School Death Metal



Register


Go to the top of the page
  Insert nick Quick quote
+Quote Post

Reply to this topicStart new topic
1 User(s) are reading this topic (1 Guests and 0 Anonymous Users)
0 Members:

 



- Lo-Fi Version Support form
Copyrights and abuse reports form
Time is now: 18th September 2020 - 08:20:43