Welcome Guest ( Log In | Register )

> Chronicle - Demonology (2020), Melodic Blackened Death/Thrash Metal
post Mar 26 2020, 16:07:52
Post #1

Правь статус, ####!111
**************
Group: Металариец
Posts: 21,974
Releases: 15165
From: Г.Харьков
On Forums: 8 years 3 weeks
Thanks: 275372 time(s)
Unknown


(IMG:http://metalarea.org/images/audiocovers/2020_Mar/acov_tid335348_thumb.jpg)

*Artist: Chronicle
*Album: Demonology
*Year: 2020
*Genre: Melodic Blackened Death/Thrash Metal
*Country: Denmark (IMG:http://metalarea.org/forum/style_images/flags/Denmark.png)
*Format: mp3@CBR320kbps
*Size: 139MB

Tracklist:
1. I Believe (Intro)
2. They Have Returned
3. Nocturnality
4. R.R.D.
5. Living Hellscape
6. Taxidermic Divinity
7. Reset to Zero
8. Perpetuation of Addiction
9. Human Instrumentality
10. Embrace the Abyss
11. Bushido
12. Infected
13. Malignance Personfied
******************************
Total playing time: 1:00:25




Extended info
Sebastian Skousgaard Guitars
Jari Sielemann Holopainen Drums (2012-present)
Lars Bo Nepper Guitars, Vocals (2012-present)
Jacob Wammen Bass (2015-present)
See also: Herezy, ex-Caro



Technical info
(IMG:http://metalarea.org/images/spectrogram/2020_Mar/b1e3b7250a347af1525c58fb043dbef5.png)
Input File: 6 - Taxidermic Divinity.mp3
Channels : 2
Sample Rate : 44100
Precision : 16-bit
Duration : 00:06:05.87 = 16134779 samples = 27440.1 CDDA sectors
File Size : 14.7M
Bit Rate : 322k
Sample Encoding: MPEG audio (layer I, II or III)
Comments :
Title=Taxidermic Divinity
Artist=Chronicle
Album=Demonology
Tracknumber=6
Year=2020
Genre=Rock
Discnumber=1



Register


Go to the top of the page
  Insert nick Quick quote
+Quote Post
 
Start new topic
Replies (1 - 6)
post Mar 28 2020, 17:23:08
Post #2

Правь статус, ####!111
**************
Group: Металариец
Posts: 3,023
Releases: 8
From: Dnipro
On Forums: 11 years 10 months
Thanks: 978 time(s)
Ukraine


Прошлый у них был зашибись (IMG:style_emoticons/default/20.gif)


Thanks:
Go to the top of the page
  Insert nick Quick quote
+Quote Post
post Mar 29 2020, 05:07:46
Post #3

Ъ
**************
Group: Металариец
Posts: 10,097
Releases: 9
On Forums: 11 years 4 months
Thanks: 2022 time(s)
Sweden


Прогнать на раз норм, правда подзатянуто, особенно учитывая однообразность. И при чем тут блекенед?
Go to the top of the page
  Insert nick Quick quote
+Quote Post
post Mar 29 2020, 12:52:24
Post #4

Четыре Литра
****
Group: Металариец
Posts: 305
Releases: 0
From: Лыткарино
On Forums: 1 year 3 weeks
Thanks: 76 time(s)
Russian Federation


Прогнать на раз норм, правда подзатянуто, особенно учитывая однообразность. И при чем тут блекенед?

Согласен. Вроде как слушать вполне можно, но им бы длительность мин. на 40, а при такой затянутости заметно надоедает.
Go to the top of the page
  Insert nick Quick quote
+Quote Post
post Apr 2 2020, 11:38:42
Post #5

Правь статус, ####!111
**************
Group: Металариец
Posts: 3,023
Releases: 8
From: Dnipro
On Forums: 11 years 10 months
Thanks: 978 time(s)
Ukraine


От лоська бы не отказался. (IMG:style_emoticons/default/smile3.gif)
Go to the top of the page
  Insert nick Quick quote
+Quote Post
post Apr 5 2020, 04:16:02
Post #6

Ненавижу всё общественное, особенно питание, мнение и туалет.
**********
Group: Металариец
Posts: 1,110
Releases: 0
From: Sacred PetroGrind
On Forums: 12 years 2 months
Thanks: 292 time(s)
Russian Federation


ЦИТАТА(isvili @ Mar 28 2020, 19:23:08) *
Прошлый у них был зашибись (IMG:style_emoticons/default/20.gif)

как называется?
Go to the top of the page
  Insert nick Quick quote
+Quote Post
post Apr 5 2020, 14:42:05
Post #7

Правь статус, ####!111
**************
Group: Металариец
Posts: 3,023
Releases: 8
From: Dnipro
On Forums: 11 years 10 months
Thanks: 978 time(s)
Ukraine


ЦИТАТА(zolotoiskatel @ Apr 5 2020, 06:16:02) *
как называется?

https://www.metal-archives.com/albums/Chron...ial_Fear/544558
Go to the top of the page
  Insert nick Quick quote
+Quote Post

Reply to this topicStart new topic
2 User(s) are reading this topic (2 Guests and 0 Anonymous Users)
0 Members:

 



- Lo-Fi Version Support form
Copyrights and abuse reports form
Time is now: 6th June 2020 - 19:43:31