Welcome Guest ( Log In | Register )

> Ossuary - Buried And Forgotten (2019), Death Metal (D17)
post Mar 26 2020, 22:59:57
Post #1

Правь статус, ####!111
**************
Group: Металариец
Posts: 22,252
Releases: 15411
From: Г.Харьков
On Forums: 8 years 1 month
Thanks: 281640 time(s)
Unknown


(IMG:http://metalarea.org/images/audiocovers/2020_Mar/acov_tid335372_thumb.jpg)

*Artist: Ossuary
*Album: Buried And Forgotten
*Year: 2019
*Genre: Death Metal
*Country: Colombia (IMG:http://metalarea.org/forum/style_images/flags/Colombia.png)
*Format: mp3@CBR320kbps
*Size: 74MB

Tracklist:
1. Intro 01:01
2. B.S.A 03:36
3. Army of the Dead 02:55
4. Buried and Forgotten 03:52
5. By Massive Consumption 03:07
6. In Times of War 03:21
7. Killing by Forces of Your Mind 02:57
8. Profane Entity 03:20
9. Post-Apocalyptic Terror 03:37
10. Necrophiliac Urge 03:08
******************************
Total playing time: 30:54




Extended info
Jean Pool Bass
Andres Giraldo Bass, Vocals (formerly), Guitars, Vocals
Julian Vega Drums
Juan Esteban Sanchez Guitars


Technical info
(IMG:http://metalarea.org/images/spectrogram/2020_Mar/3536f19d1d6b0bf38c85ea9b8fc5be3c.png)
Input File: 04. Buried and Forgotten.mp3
Channels : 2
Sample Rate : 44100
Precision : 16-bit
Duration : 00:03:52.51 = 10253471 samples = 17437.9 CDDA sectors
File Size : 9.66M
Bit Rate : 332k
Sample Encoding: MPEG audio (layer I, II or III)
Comments :
Title=Buried and Forgotten
Artist=Ossuary
Album=Buried and Forgotten
Tracknumber=04/10
Year=2019
Genre=Death Metal



Register


Go to the top of the page
  Insert nick Quick quote
+Quote Post
 
Start new topic
Replies (1 - 1)
post Mar 27 2020, 09:29:45
Post #2

Шесть Литров
******
Group: Металариец
Posts: 627
Releases: 0
From: APATIN, SERBIA, АПАТИН, СЕРБИЯ
On Forums: 12 years 8 months
Thanks: 1017 time(s)



Flac

Register


Thanks:
Go to the top of the page
  Insert nick Quick quote
+Quote Post

Reply to this topicStart new topic
1 User(s) are reading this topic (1 Guests and 0 Anonymous Users)
0 Members:

 



- Lo-Fi Version Support form
Copyrights and abuse reports form
Time is now: 5th July 2020 - 07:36:02