Welcome Guest ( Log In | Register )

> Retribution - C.H.A.O.S (2009), Death/Thrash Metal (D13)
post Mar 27 2020, 09:02:12
Post #1

Подвал
**************
Group: Металариец
Posts: 14,656
Releases: 8300
From: Far East (Khabarovsk)
On Forums: 11 years 4 months
Thanks: 86059 time(s)
Russian Federation


(IMG:http://metalarea.org/images/audiocovers/2020_Mar/acov_tid335387_thumb.jpg)

*Artist: Retribution
*Album: C.H.A.O.S
*Year: 2009
*Genre: Death/Thrash Metal
*Country: Netherlands (IMG:http://metalarea.org/forum/style_images/flags/Netherlands.png)
*Format: mp3@CBR320kbps
*Size: 133MB

Tracklist:
1. City In Ruins 06:45
2. Retribution 04:50
3. Child Of The System 03:55
4. The Glass Tower 03:11
5. The Original Syn 04:45
6. Rebel 04:43
7. Resist The Oppressor 03:32
8. Selective Perception 03:53
9. Violation Of Trust 06:35
10. Despair 08:08
11. The Final Hour 08:23
******************************
Total playing time: 58:40

Extended info
Recorded at "The Hole" studio between July-December 2008.
Mixed and Mastered by T. Bronneberg at Unicron media between December 2008-March 2009.
Thanx T-Mag Crew for sharing.


Technical info
(IMG:http://metalarea.org/images/spectrogram/2020_Mar/b1b54227c84036245808612e73df5c46.png)
Input File: 02-Retribution.mp3
Channels : 2
Sample Rate : 44100
Precision : 16-bit
Duration : 00:04:49.25 = 12755749 samples = 21693.5 CDDA sectors
File Size : 11.6M
Bit Rate : 320k
Sample Encoding: MPEG audio (layer I, II or III)
Comments :
Title=Retribution
Artist=Retribution
Album=C.H.A.O.S.
Tracknumber=02
Year=2009
Genre=Death/Thrash



Register


Go to the top of the page
  Insert nick Quick quote
+Quote Post
 
Start new topic
Replies (1 - 1)
post Mar 29 2020, 07:15:08
Post #2

Group: Подсевший
Posts: 17
Releases: 0
On Forums: 1 year 4 months
Thanks: 2 time(s)
Unknown


Once again, thanks for saying "thanks" on Tmag ...
Go to the top of the page
  Insert nick Quick quote
+Quote Post

Reply to this topicStart new topic
2 User(s) are reading this topic (2 Guests and 0 Anonymous Users)
0 Members:

 



- Lo-Fi Version Support form
Copyrights and abuse reports form
Time is now: 3rd June 2020 - 04:17:10