Welcome Guest ( Log In | Register )

 
Reply to this topicStart new topic
> Instinct - Instinctive Terror [ep] (1997), Thrash Metal (D)
post Mar 27 2020, 09:13:38
Post #1

Подвал
**************
Group: Металариец
Posts: 15,129
Releases: 8577
From: Far East (Khabarovsk)
On Forums: 11 years 7 months
Thanks: 90354 time(s)
Russian Federation


(IMG:http://metalarea.org/images/audiocovers/2020_Mar/acov_tid335388_thumb.jpg)

*Artist: Instinct
*Album: Instinctive Terror [ep]
*Year: 1997
*Genre: Thrash Metal
*Country: Netherlands (IMG:http://metalarea.org/forum/style_images/flags/Netherlands.png)
*Format: mp3@CBR320kbps
*Size: 44MB

Tracklist:
1. Bring Me Down 04:34
2. God Of The Lone World 03:59
3. Sleepless 03:42
4. Insane 05:23
******************************
Total playing time: 17:38

Technical info
(IMG:http://metalarea.org/images/spectrogram/2020_Mar/9d5d316e6e87c4e1cf6a31bb73d38ff2.png)
Input File: 01-Bring Me Down.mp3
Channels : 2
Sample Rate : 44100
Precision : 16-bit
Duration : 00:04:34.38 = 12100246 samples = 20578.6 CDDA sectors
File Size : 11.0M
Bit Rate : 320k
Sample Encoding: MPEG audio (layer I, II or III)
Comments :
Title=Bring Me Down
Artist=Instinct
Album=Instinctive Terror (EP)
Tracknumber=01
Year=1997
Genre=Thrash Metal



Register


Go to the top of the page
  Insert nick Quick quote
+Quote Post

Reply to this topicStart new topic
2 User(s) are reading this topic (2 Guests and 0 Anonymous Users)
0 Members:

 



- Lo-Fi Version Support form
Copyrights and abuse reports form
Time is now: 19th September 2020 - 19:52:49