Welcome Guest ( Log In | Register )

 
Reply to this topicStart new topic
> Thread Of Omen - Confined Reality [ep] (2019), Melodic Death Metal
post Mar 27 2020, 10:45:10
Post #1

Правь статус, ####!111
**************
Group: Металариец
Posts: 6,533
Releases: 6019
From: Lithuania
On Forums: 13 years 11 months
Thanks: 45505 time(s)
Lithuania


(IMG:https://metalarea.org/images/audiocovers/2020_Mar/acov_tid335393_thumb.jpg)

*Artist: Thread Of Omen
*Album: Confined Reality [ep]
*Year: 2019
*Genre: Melodic Death Metal
*Country: South Africa (IMG:https://metalarea.org/forum/style_images/flags/South%20Africa.png)
*Format: mp3@CBR320kbps
*Size: 79MB

Tracklist:
1. Augmented
2. Archetype
3. Confined Reality
4. Egoic Wars (Na Vervalle Grafkelders)
5. Inherent Vice
******************************
Total playing time: 34:03


(IMG:https://metalarea.org/images/youtube.png)

Technical info
(IMG:https://metalarea.org/images/spectrogram/2020_Mar/2bffe0f35a2215066b2abdbc3c194f7b.png)
Input File: 02. Archetype.mp3
Channels : 2
Sample Rate : 44100
Precision : 16-bit
Duration : 00:06:45.52 = 17883608 samples = 30414.3 CDDA sectors
File Size : 16.4M
Bit Rate : 324k
Sample Encoding: MPEG audio (layer I, II or III)
Comments :
Title=Archetype
Artist=Thread of Omen
Album=Confined Reality
Tracknumber=2
Year=2019-11-15
Genre=Metal
Discnumber=1



Register


Go to the top of the page
  Insert nick Quick quote
+Quote Post

Reply to this topicStart new topic
1 User(s) are reading this topic (1 Guests and 0 Anonymous Users)
0 Members:

 



- Lo-Fi Version Support form
Copyrights and abuse reports form
Time is now: 21st September 2020 - 20:18:04