Welcome Guest ( Log In | Register )

> Инцест - Инцест [demo] (1992), Thrash Metal
post Mar 27 2020, 11:34:23
Post #1

Подвал
**************
Group: Металариец
Posts: 14,656
Releases: 8300
From: Far East (Khabarovsk)
On Forums: 11 years 4 months
Thanks: 86059 time(s)
Russian Federation


(IMG:http://metalarea.org/images/audiocovers/2020_Mar/acov_tid335396_thumb.jpg)

*Artist: Инцест
*Album: Инцест [demo]
*Year: 1992
*Genre: Thrash Metal
*Country: Russian Federation (IMG:http://metalarea.org/forum/style_images/flags/Russian%20Federation.png)
*Format: mp3@CBR320kbps
*Size: 64MB

Tracklist:
1. Intro 00:51
2. Destruction 02:26
3. Мёртвый Свет 02:16
4. Яд 01:58
5. Грязные Твари 03:13
6. Посланник Ада 03:02
7. Сатана 03:17
8. Безумие 03:32
9. Болезнь 00:59
10. Фабрика Смерти 03:12
11. Горчичный Газ 03:05
******************************
Total playing time: 27:51

Extended info
Band from Ulan-Ude, Republic of Buryatia.
Thanx AIK445 for sharing this rarity.


Technical info
(IMG:http://metalarea.org/images/spectrogram/2020_Mar/83d69be6b4dafab5df54a075e868a62f.png)
Input File: 02-Destruction.mp3
Channels : 2
Sample Rate : 44100
Precision : 16-bit
Duration : 00:02:26.69 = 6468941 samples = 11001.6 CDDA sectors
File Size : 5.87M
Bit Rate : 320k
Sample Encoding: MPEG audio (layer I, II or III)
Comments :
Title=Destruction
Artist=Incest
Album=Incest (Demo)
Tracknumber=02
Year=1992
Genre=Metal



Register


Go to the top of the page
  Insert nick Quick quote
+Quote Post
 
Start new topic
Replies (1 - 1)
post Mar 27 2020, 18:05:04
Post #2

Group: Подсевший
Posts: 11
Releases: 0
From: London
On Forums: 9 years 5 months
Thanks: 2 time(s)
United Kingdom


https://www.youtube.com/watch?v=UMl6txsFyac


Thanks:
(1) Diflock,
Go to the top of the page
  Insert nick Quick quote
+Quote Post

Reply to this topicStart new topic
2 User(s) are reading this topic (2 Guests and 0 Anonymous Users)
0 Members:

 



- Lo-Fi Version Support form
Copyrights and abuse reports form
Time is now: 3rd June 2020 - 03:43:54