Welcome Guest ( Log In | Register )

 
Reply to this topicStart new topic
> Eternal Mourning - My Soul's Grief [demo] (1995), Gothic/Doom/Death Metal (D5)
post Mar 27 2020, 11:46:50
Post #1

Подвал
**************
Group: Металариец
Posts: 14,656
Releases: 8300
From: Far East (Khabarovsk)
On Forums: 11 years 4 months
Thanks: 86059 time(s)
Russian Federation


(IMG:http://metalarea.org/images/audiocovers/2020_Mar/acov_tid335398_thumb.jpg)

*Artist: Eternal Mourning
*Album: My Soul's Grief [demo]
*Year: 1995
*Genre: Gothic/Doom/Death Metal
*Country: Portugal (IMG:http://metalarea.org/forum/style_images/flags/Portugal.png)
*Format: mp3@CBR128kbps (IMG:http://metalarea.org/images/bit_low.gif)
*Size: 26MB

Tracklist:
1. Intro (The River Of Princess) 02:28
2. Real Nightmares 05:31
3. Sombras Do Desconhecido 05:34
4. Instincts 06:29
5. No Painkillers 07:10
6. Outro (Cry Of The Damned) 01:51
******************************
Total playing time: 29:03



Extended info
Recorded at rec´n´roll studios in September of 1995.
All music by Eternal Mourning. All lyrics by Guida except "Sombras do Desconhecido" by Mário Pereira. Produced by Luis Barros & Eternal Mourning.


Technical info
(IMG:http://metalarea.org/images/spectrogram/2020_Mar/d708257b5dfed805556d43cb502279ca.png)
Input File: 02-Real Nightmares.mp3
Channels : 2
Sample Rate : 44100
Precision : 16-bit
Duration : 00:05:32.67 = 14670923 samples = 24950.5 CDDA sectors
File Size : 5.32M
Bit Rate : 128k
Sample Encoding: MPEG audio (layer I, II or III)
Comments :
Title=Real Nightmares
Artist=Eternal Mourning
Album=My Soul's Grief (Demo)
Tracknumber=02
Year=1995
Genre=Doom/Death Metal



Register


Go to the top of the page
  Insert nick Quick quote
+Quote Post

Reply to this topicStart new topic
2 User(s) are reading this topic (2 Guests and 0 Anonymous Users)
0 Members:

 



- Lo-Fi Version Support form
Copyrights and abuse reports form
Time is now: 3rd June 2020 - 05:05:58