Welcome Guest ( Log In | Register )

> Releases Upload / Добавление релизов

Добавить релиз тут / Click here to add release
Рекомендованные обменники / Recommended file shares

> Symbiotic Growth - Symbiotic Growth (2020), Progressive Black/Death Metal
post Mar 28 2020, 01:49:32
Post #1

Правь статус, ####!111
**************
Group: Металариец
Posts: 21,254
Releases: 14534
From: Г.Харьков
On Forums: 7 years 10 months
Thanks: 259074 time(s)
Unknown


(IMG:http://metalarea.org/images/audiocovers/2020_Mar/acov_tid335448_thumb.jpg)

*Artist: Symbiotic Growth
*Album: Symbiotic Growth
*Year: 2020
*Genre: Progressive Black/Death Metal
*Country: Canada (IMG:http://metalarea.org/forum/style_images/flags/Canada.png)
*Format: mp3@CBR320kbps
*Size: 92MB

Tracklist:
1. _neuralink//run 03:26
2. Technological Singularity 03:56
3. Consumed by Digital Light 10:03
4. The Wilting Shroud of Latent Automata 09:29
5. Dissented 13:16
******************************
Total playing time: 40:10




Extended info
Aaron Barriault - Guitar, Vocals, Bass, Keys
Devin "Azerate" McQueen - Guitar, Vocals
Dan Favot - Drums


Technical info
(IMG:http://metalarea.org/images/spectrogram/2020_Mar/9e18ccb82997ccab27e73f2f446300fe.png)
Input File: Symbiotic Growth - Symbiotic Growth - 03 Consumed by Digital Light.mp3
Channels : 2
Sample Rate : 44100
Precision : 16-bit
Duration : 00:10:03.38 = 26609190 samples = 45253.7 CDDA sectors
File Size : 24.2M
Bit Rate : 321k
Sample Encoding: MPEG audio (layer I, II or III)
Comments :
Title=Consumed by Digital Light
Artist=Symbiotic Growth
Album=Symbiotic Growth
Tracknumber=3
Year=2020



Register


Go to the top of the page
  Insert nick Quick quote
+Quote Post
 
Start new topic
Replies (1 - 1)
post Mar 31 2020, 03:24:55
Post #2

Ъ
**************
Group: Металариец
Posts: 10,012
Releases: 9
On Forums: 11 years 2 months
Thanks: 1986 time(s)
Sweden


Третьесорт, хватило на пол альбома.
Go to the top of the page
  Insert nick Quick quote
+Quote Post

Reply to this topicStart new topic
1 User(s) are reading this topic (1 Guests and 0 Anonymous Users)
0 Members:

 



- Lo-Fi Version Support form
Copyrights and abuse reports form
Time is now: 3rd April 2020 - 05:52:27