Welcome Guest ( Log In | Register )

> Arboreal - Queenly Remains [ep] (2020), Epic Blackened Death Metal
post Mar 28 2020, 13:13:10
Post #1

Правь статус, ####!111
**************
Group: Металариец
Posts: 29,287
Releases: 21502
From: Г.Харьков
On Forums: 10 years 2 weeks
Thanks: 444042 time(s)
Unknown


(IMG:http://metalarea.org/images/audiocovers/2020_Mar/acov_tid335458_thumb.jpg)

*Artist: Arboreal
*Album: Queenly Remains [ep]
*Year: 2020
*Genre: Epic Blackened Death Metal
*Country: Canada (IMG:http://metalarea.org/forum/style_images/flags/Canada.png)
*Format: mp3@CBR320kbps
*Size: 51MB

Tracklist:
1. Darkness Fades in Daylight
2. Red Magic
3. Writhing Eerily
4. Shadow Only Exists by Light
5. Queenly Remains
6. Pyrrhic Victory
7. Sunlight Fades in Starlight
******************************
Total playing time: 21:44




Extended info
Connor Gordon Drums
Sunshine Schneider Guitars, Vocals
Alex Nicol Guitars
Taylor Romero Vocals


Technical info
(IMG:http://metalarea.org/images/spectrogram/2020_Mar/a72a8d2a2ca06f6d9adad28065bb7b1e.png)
Input File: 03 - Writhing Eerily.mp3
Channels : 2
Sample Rate : 44100
Precision : 16-bit
Duration : 00:04:38.90 = 12299534 samples = 20917.6 CDDA sectors
File Size : 11.3M
Bit Rate : 325k
Sample Encoding: MPEG audio (layer I, II or III)
Comments :
Title=Writhing Eerily
Artist=Arboreal
Album=Queenly Remains
Tracknumber=3
Year=2020-03-27
Genre=Metal
Discnumber=1



Register


Go to the top of the page
  Insert nick Quick quote
+Quote Post
 
Start new topic
Replies (1 - 2)
post Mar 30 2020, 04:48:35
Post #2

Два Литра
**
Group: Завсегдатай
Posts: 130
Releases: 0
On Forums: 3 years 5 months
Thanks: 42 time(s)
Russian Federation


Интересная музыка, близкая моему настроению в данный момент.
Go to the top of the page
  Insert nick Quick quote
+Quote Post
post Jan 18 2022, 15:28:10
Post #3

but I'm white and furry
**********
Group: Металариец
Posts: 1,435
Releases: 523
From: Москва
On Forums: 16 years 3 months
Thanks: 7282 time(s)
Russian Federation


Epic нужно поменять на Progressive - первого нет, второго в избытке
Go to the top of the page
  Insert nick Quick quote
+Quote Post

Reply to this topicStart new topic
1 User(s) are reading this topic (1 Guests and 0 Anonymous Users)
0 Members:

 



- Lo-Fi Version Support form
Copyrights and abuse reports form
Time is now: 25th May 2022 - 05:38:55