Welcome Guest ( Log In | Register )

 
Reply to this topicStart new topic
> Buster'd - Cocaine [demo] (1997), Thrash Metal
post Mar 28 2020, 13:48:32
Post #1

Подвал
**************
Group: Металариец
Posts: 14,755
Releases: 8362
From: Far East (Khabarovsk)
On Forums: 11 years 5 months
Thanks: 86744 time(s)
Russian Federation


(IMG:http://metalarea.org/images/audiocovers/2020_Mar/acov_tid335460_thumb.jpg)

*Artist: Buster'd
*Album: Cocaine [demo]
*Year: 1997
*Genre: Thrash Metal
*Country: Russian Federation (IMG:http://metalarea.org/forum/style_images/flags/Russian%20Federation.png)
*Format: mp3@CBR128kbps (IMG:http://metalarea.org/images/bit_low.gif)
*Size: 56MB

Tracklist:
1. Intro 01:58
2. I Hate The Law 04:47
3. Катастрофа 03:08
4. Сocaine 05:41
5. Maniac Dream 05:58
6. Когда Я Умру 05:46
7. C.S. 06:54
8. Young Flash 02:42
9. Душа Портнова 01:15
10. Black Dates 03:08
11. As I Die 05:46
12. Мама, Все О,Кей 04:51
13. Мутаций 03:30
14. Нервный Шок 04:46
15. Памяти Дудаева 02:52
16. Мама,Все О,Кей (remix) 03:47
******************************
Total playing time: 1:06:49

Extended info
Band from Konakovo, Tver Oblast.
Thanx mr. AIK445 for sharing this demo.


Technical info
(IMG:http://metalarea.org/images/spectrogram/2020_Mar/ce1b544e1a5648ca0c7e361e2e1a2001.png)
Input File: 02-I Hate The Law.mp3
Channels : 2
Sample Rate : 44100
Precision : 16-bit
Duration : 00:04:47.64 = 12684968 samples = 21573.1 CDDA sectors
File Size : 4.61M
Bit Rate : 128k
Sample Encoding: MPEG audio (layer I, II or III)
Comments :
Title=I Hate The Law
Artist=Buster'D
Album=Cocaine (Demo)
Tracknumber=02
Year=1997
Genre=Thrash Metal



Register


Go to the top of the page
  Insert nick Quick quote
+Quote Post

Reply to this topicStart new topic
2 User(s) are reading this topic (2 Guests and 0 Anonymous Users)
0 Members:

 



- Lo-Fi Version Support form
Copyrights and abuse reports form
Time is now: 4th July 2020 - 12:17:33