Welcome Guest ( Log In | Register )

> Dodenbezweerder - Vrees De Toorn Van De Wezens Verscholen Achter Majestueuze Vleugels (2020), Black Metal
post Mar 28 2020, 14:20:22
Post #1

Правь статус, ####!111
**************
Group: Металариец
Posts: 28,136
Releases: 20530
From: Г.Харьков
On Forums: 9 years 6 months
Thanks: 417913 time(s)
Unknown


(IMG:http://metalarea.org/images/audiocovers/2020_Mar/acov_tid335462_thumb.jpg)

*Artist: Dodenbezweerder
*Album: Vrees De Toorn Van De Wezens Verscholen Achter Majestueuze Vleugels
*Year: 2020
*Genre: Black Metal
*Country: Netherlands (IMG:http://metalarea.org/forum/style_images/flags/Netherlands.png)
*Format: mp3@CBR320kbps
*Size: 86MB

Tracklist:
1. Vrees de toorn van de wezens verscholen achter majestueuze vleugels 07:20
2. Als het vuur van mijn toorn is ontstoken zal het branden tot in het diepste dodenrijk 06:27
3. Opgeslokt door de ontzielde leegte 05:18
4. Glimmende zwaarden door de mist van het evangelie 05:32
5. Zalf de voeten van het hoofdeloze lichaam 06:47
6. Haat in het aangezicht van de verscheurde zielen 06:27
******************************
Total playing time: 37:51



Extended info
S Drums
M Vocals, Guitar
See also: Black Mouth of Spite, Caput Mortuum, Cloak of Altering, De Magia Veterum, Gnaw Their Tongues, Golden Ashes, Grand Celestial Nightmare, Hagetisse, Malorum, Mystagogue, Obscuring Veil, Pyriphlegethon, The Black Mysteries, The Sombre, ex-Astral, ex-Atrocious, ex-Soulwound, ex-The Nefarious Cult, ex-Cauteror, ex-Eclipse, ex-Ophiuchus, Aderlating, Canticle, It Only Gets Worse, Mors Sonat, Offerbeest, Pompidou, Seirom, The Night Specter, Vetus Sepulcrum, ex-Dimlit Hate Cellar, ex-Temple of Will


Technical info
(IMG:http://metalarea.org/images/spectrogram/2020_Mar/0926919bb85565cef046deb6016a0669.png)
Input File: 01 - Vrees de toorn van de wezens verscholen achter majestueuze vle.mp3
Channels : 2
Sample Rate : 44100
Precision : 16-bit
Duration : 00:07:20.23 = 19414319 samples = 33017.5 CDDA sectors
File Size : 17.6M
Bit Rate : 320k
Sample Encoding: MPEG audio (layer I, II or III)
Comments :
Title=Vrees de toorn van de wezens verscholen achter majestueuze vle
Artist=Dodenbezweerder
Album=Vrees de Toorn Van de Wezens Verscholen Achter Majestueuze Vleugels
Tracknumber=1
Year=2020
Genre=Black Metal



Register


Go to the top of the page
  Insert nick Quick quote
+Quote Post
 
Start new topic
Replies (1 - 5)
post Mar 29 2020, 09:01:02
Post #2

**************
Group: Металариец
Posts: 2,788
Releases: 14
From: Казань
On Forums: 12 years 2 months
Thanks: 3878 time(s)
Russian Federation


Все Творения к коим прикасается рука Мориса - веют ветрами Апокалипсиса. Они весьма далекие и отстраненные, с каждым шагом набирают Силу, в тоже время неся похоронный шлейф за собой.
Dodenbezweerder - отстраненная муза Пустоты, мертвенных тлеющих огарков сандаловых деревьев. Подобно зараженным территориям - музыка Dodenbezweerder несет в себе Упадок после мора и настроение вопиющего Отчаяния. Это бескрайнее поле шумовых экспериментов и похоронных звуковых диверсий - олицетворяет собой радиоактивный полигон Заразы и Эпидемии, стоит лишь отворить Ворота.
Dodenbezweerder - это мантра неизлечимых фобий и навязчивых состояний, наследие аффективного Сознания, позволяющего рождать Шедевры.


Go to the top of the page
  Insert nick Quick quote
+Quote Post
post Mar 29 2020, 17:42:34
Post #3

бутылка кефира полбатона
**********
Group: Металариец
Posts: 1,140
Releases: 0
From: Курганская обл., Шадринск
On Forums: 12 years 8 months
Thanks: 371 time(s)
Russian Federation


нормально так угнетает
Go to the top of the page
  Insert nick Quick quote
+Quote Post
post Mar 30 2020, 04:40:50
Post #4

Два Литра
**
Group: Завсегдатай
Posts: 122
Releases: 0
On Forums: 2 years 11 months
Thanks: 37 time(s)
Russian Federation


ЦИТАТА(sethurius @ 29th March 2020 - 09:01:02) *
Все Творения к коим прикасается рука Мориса - веют ветрами Апокалипсиса. Они весьма далекие и отстраненные, с каждым шагом набирают Силу, в тоже время неся похоронный шлейф за собой.
Dodenbezweerder - отстраненная муза Пустоты, мертвенных тлеющих огарков сандаловых деревьев. Подобно зараженным территориям - музыка Dodenbezweerder несет в себе Упадок после мора и настроение вопиющего Отчаяния. Это бескрайнее поле шумовых экспериментов и похоронных звуковых диверсий - олицетворяет собой радиоактивный полигон Заразы и Эпидемии, стоит лишь отворить Ворота.
Dodenbezweerder - это мантра неизлечимых фобий и навязчивых состояний, наследие аффективного Сознания, позволяющего рождать Шедевры.


Невероятно близкая моему восприятию характеристика-рецензия данного альбома.

Не сеет ли подобная музыка во внутреннем мире слушателя зерно разрушения и упадка? Попав в благодатную почву, не расцветёт ли во всём своём ужасающем величии Опустошение и Разложение некогда целостной и свежей внутренней вселенной?
Go to the top of the page
  Insert nick Quick quote
+Quote Post
post Apr 2 2020, 12:04:31
Post #5

буква ю
**************
Group: Металариец
Posts: 5,267
Releases: 0
On Forums: 5 years 9 months
Thanks: 3401 time(s)
Unknown


Морис, ты залюбил своим УГнетающим конвейером.
лучше что то одно сделать хорошо, чем много всего наатыбись.


Thanks:
(1) Chasm,
Go to the top of the page
  Insert nick Quick quote
+Quote Post
post Sep 8 2020, 10:28:58
Post #6

A Forgotten Dream
**************
Group: Металариец
Posts: 6,810
Releases: 8
On Forums: 12 years 2 weeks
Thanks: 3229 time(s)
Unknown




По музыке убедительно. Очень под настроение и да, опустошительно.


Thanks:
(1) Occultas,
Go to the top of the page
  Insert nick Quick quote
+Quote Post

Reply to this topicStart new topic
2 User(s) are reading this topic (2 Guests and 0 Anonymous Users)
0 Members:

 



- Lo-Fi Version Support form
Copyrights and abuse reports form
Time is now: 29th November 2021 - 07:11:53