Welcome Guest ( Log In | Register )

 
Reply to this topicStart new topic
> Primitive Noise - Shake [demo] (1993), Death Metal
post Mar 29 2020, 22:19:50
Post #1

Подвал
**************
Group: Металариец
Posts: 14,763
Releases: 8365
From: Far East (Khabarovsk)
On Forums: 11 years 5 months
Thanks: 86754 time(s)
Russian Federation


(IMG:http://metalarea.org/images/audiocovers/2020_Mar/acov_tid335515_thumb.JPG)

*Artist: Primitive Noise
*Album: Shake [demo]
*Year: 1993
*Genre: Death Metal
*Country: Spain (IMG:http://metalarea.org/forum/style_images/flags/Spain.png)
*Format: mp3@CBR192kbps
*Size: 33MB

Tracklist:
1. Dismembered Bodies 05:41
2. After Closing The Door 04:00
3. People 03:29
4. Shake 04:51
5. Nonamed 06:08
6. Epilogue 00:25
******************************
Total playing time: 24:34

Technical info
(IMG:http://metalarea.org/images/spectrogram/2020_Mar/fe7b7b0b6ee5ddf2830620a6c727f8c7.png)
Input File: 01-Dismembered Bodies.mp3
Channels : 2
Sample Rate : 44100
Precision : 16-bit
Duration : 00:05:17.33 = 13994341 samples = 23799.9 CDDA sectors
File Size : 7.62M
Bit Rate : 192k
Sample Encoding: MPEG audio (layer I, II or III)
Comments :
Title=Dismembered Bodies
Artist=Primitive Noise (Esp)
Album=Shake Demo
Tracknumber=01
Year=1993
Genre=Death Metal



Register


Go to the top of the page
  Insert nick Quick quote
+Quote Post

Reply to this topicStart new topic
1 User(s) are reading this topic (1 Guests and 0 Anonymous Users)
0 Members:

 



- Lo-Fi Version Support form
Copyrights and abuse reports form
Time is now: 5th July 2020 - 08:55:15