Welcome Guest ( Log In | Register )

> Releases Upload / Добавление релизов

Добавить релиз тут / Click here to add release
Рекомендованные обменники / Recommended file shares

> Words Of Farewell - Inner Universe [ep] (2020), Progressive/Melodic Death Metal
post Yesterday, 12:59:54
Post #1

Правь статус, ####!111
**************
Group: Металариец
Posts: 21,196
Releases: 14482
From: Г.Харьков
On Forums: 7 years 10 months
Thanks: 258199 time(s)
Unknown


(IMG:http://metalarea.org/images/audiocovers/2020_Mar/acov_tid335551_thumb.jpg)

*Artist: Words Of Farewell
*Album: Inner Universe [ep]
*Year: 2020
*Genre: Progressive/Melodic Death Metal
*Country: Germany (IMG:http://metalarea.org/forum/style_images/flags/Germany.png)
*Format: mp3@CBR320kbps
*Size: 43MB

Tracklist:
01. Chronotopos
02. Whispering Deeps
03. Offworld
04. Alter Memory
******************************
Total playing time: 18:36



Extended info
Konstantin Voßhoff Bass
See also: Aparathus
Alexander "Alex" Otto Bass (2007-2009), Vocals (lead) (2007-present)
Erik "EG" Gaßmus Guitars (lead), Vocals (backing) (2007-present)
Leo Wichmann Keyboards (2007-present)
Tristan Wegner Drums (2013-present)
See also: Mob Rules (live), Barfuß, MowHa, Stahlfuß
Robin "Rob" Dirks Guitars (2014-present)
See also: Victims of Prejudice


Technical info
(IMG:http://metalarea.org/images/spectrogram/2020_Mar/c48029e4b840d867a81c994c2e99a5b9.png)
Input File: 03. Offworld.mp3
Channels : 2
Sample Rate : 44100
Precision : 16-bit
Duration : 00:04:19.33 = 11436497 samples = 19449.8 CDDA sectors
File Size : 10.4M
Bit Rate : 320k
Sample Encoding: MPEG audio (layer I, II or III)
Comments :
Title=Offworld
Artist=Words Of Farewell
Album=Inner Universe
Tracknumber=03/04
Year=2020
Discnumber=1/1



Register


Go to the top of the page
  Insert nick Quick quote
+Quote Post
 
Start new topic
Replies (1 - 2)
post Yesterday, 16:55:17
Post #2

MDM-Thrash Metal
**************
Group: Металариец
Posts: 9,341
Releases: 789
From: Одесса
On Forums: 12 years 7 months
Thanks: 21266 time(s)
Ukraine


К сожалению, но в низ по низходящей продолжается падение команды.
Первый альбом - СУПЕР!
Второй - Хороший.
Третий - слабенький.
А новая ЕПишка - ну геть слабенькая... (IMG:style_emoticons/default/6.gif)
Go to the top of the page
  Insert nick Quick quote
+Quote Post
post Today, 08:46:55
Post #3

Тридцать лет на борту "Тяжёлого" крейсера
**************
Group: Металариец
Posts: 2,221
Releases: 0
From: Питер
On Forums: 12 years 9 months
Thanks: 599 time(s)
Russian Federation


Да неплох релиз, мне зашёл. Жаль, мало треков, но на большее, видимо, не хватило ребят
Go to the top of the page
  Insert nick Quick quote
+Quote Post

Reply to this topicStart new topic
1 User(s) are reading this topic (1 Guests and 0 Anonymous Users)
0 Members:

 



- Lo-Fi Version Support form
Copyrights and abuse reports form
Time is now: 31st March 2020 - 20:53:17