Welcome Guest ( Log In | Register )

> Yak & Auld Ridge - Yak/Auld Ridge [split] (2020), Raw Black Metal/ | Atmospheric Black Metal/Ambient
post Mar 30 2020, 18:46:21
Post #1

Правь статус, ####!111
**************
Group: Металариец
Posts: 4,159
Releases: 3811
From: Одесса
On Forums: 13 years 1 month
Thanks: 41645 time(s)
Ukraine


(IMG:http://metalarea.org/images/audiocovers/2020_Mar/acov_tid335572_thumb.jpg)

*Artist: Yak & Auld Ridge
*Album: Yak/Auld Ridge [split]
*Year: 2020
*Genre: Raw Black Metal/ | Atmospheric Black Metal/Ambient
*Country: Unknown (IMG:http://metalarea.org/forum/style_images/flags/Unknown.png) | United Kingdom (IMG:http://metalarea.org/forum/style_images/flags/United%20Kingdom.png)
*Format: mp3@CBR320kbps
*Size: 57MB

Tracklist:
Yak:
1.Oikophiliaaa 04:57
2.Ropefuel 02:57
3.Saline 02:47
Auld Ridge:
4.Circles That Enshrine the Dust 05:03
5.Singing Psalms to the Father 08:14
******************************
Total playing time: 23:58



Technical info
(IMG:http://metalarea.org/images/spectrogram/2020_Mar/e735015af47c7ef027f63c0e191d86d8.png)
Input File: 05. Auld Ridge - Singing Psalms to the Father.mp3
Channels : 2
Sample Rate : 44100
Precision : 16-bit
Duration : 00:08:14.50 = 21807538 samples = 37087.6 CDDA sectors
File Size : 19.8M
Bit Rate : 321k
Sample Encoding: MPEG audio (layer I, II or III)
Comments :
Title=Singing Psalms to the Father
Artist=Auld Ridge
Album=Yak/Auld Ridge (Split)
Tracknumber=5
Year=2020
Genre=Atmospheric Black Metal/Ambient



Register


Go to the top of the page
  Insert nick Quick quote
+Quote Post
 
Start new topic
Replies (1 - 1)
post Jul 22 2021, 06:23:15
Post #2

Правь статус, ####!111
**************
Group: Металариец
Posts: 3,988
Releases: 1
From: Рейх
On Forums: 14 years 11 months
Thanks: 973 time(s)
Ukraine


обновить
Go to the top of the page
  Insert nick Quick quote
+Quote Post

Reply to this topicStart new topic
1 User(s) are reading this topic (1 Guests and 0 Anonymous Users)
0 Members:

 



- Lo-Fi Version Support form
Copyrights and abuse reports form
Time is now: 26th July 2021 - 05:31:30