Welcome Guest ( Log In | Register )

> Äkth Gánahëth - Crowned In Shadows (2020), Raw Black Metal/Ambient
post Apr 10 2020, 08:46:59
Post #1

Правь статус, ####!616
**************
Group: Металариец
Posts: 6,683
Releases: 5138
From: 55°35’N 38°08’E
On Forums: 13 years 4 weeks
Thanks: 94456 time(s)
Unknown


(IMG:http://metalarea.org/images/audiocovers/2020_Apr/acov_tid336105_thumb.jpg)

*Artist: Äkth Gánahëth
*Album: Crowned In Shadows
*Year: 2020
*Genre: Raw Black Metal/Ambient
*Country: Iceland (IMG:http://metalarea.org/forum/style_images/flags/Iceland.png)
*Format: mp3@CBR320kbps
*Size: 66MB

Tracklist:
1.The Gates of Hel 03:45
2.The Battle on Vígríðr 04:05
3.Crowned in Shadows 04:09
4.The Night Spreads Her Wings 04:08
5.Under the Spectral Full Moon 04:12
6.Brimstone and Ash 04:17
7.Journey Through the Desert of Ice 04:06
******************************
Total playing time: 28:42



Technical info
(IMG:http://metalarea.org/images/spectrogram/2020_Apr/dcae6351c32679f3429ba6d4e246ff5f.png)
Input File: 02 The Battle on Vígríðr.mp3
Channels : 2
Sample Rate : 44100
Precision : 16-bit
Duration : 00:04:05.28 = 10816848 samples = 18396 CDDA sectors
File Size : 9.86M
Bit Rate : 322k
Sample Encoding: MPEG audio (layer I, II or III)
Comments :
Title=The Battle on Vígríðr
Artist=Äkth Gánahëth
Album=Crowned In Shadows
Tracknumber=2
Year=2020
Genre=Black Metal



Register


Go to the top of the page
  Insert nick Quick quote
+Quote Post
 
Start new topic
Replies (1 - 11)
post Apr 10 2020, 18:52:21
Post #2

Четыре Литра
****
Group: Металариец
Posts: 341
Releases: 4
On Forums: 12 years 1 month
Thanks: 746 time(s)
Russian Federation


Неплохая вещица. Для дебюта - так вообще хорошо. Буду переслушивать!
Go to the top of the page
  Insert nick Quick quote
+Quote Post
post Apr 11 2020, 10:30:53
Post #3

Два Литра
**
Group: Завсегдатай
Posts: 185
Releases: 0
On Forums: 11 years 8 months
Thanks: 51 time(s)
Russian Federation


Трушно. Басы решил вообще убрать вместе с ударными.
Go to the top of the page
  Insert nick Quick quote
+Quote Post
post Apr 11 2020, 12:35:22
Post #4

Восемь Литров
********
Group: Металариец
Posts: 838
Releases: 8
On Forums: 10 years 1 week
Thanks: 638 time(s)
Russian Federation


Надо вслушаться - по превью вроде неплохая сырь с уместными клавишами
Go to the top of the page
  Insert nick Quick quote
+Quote Post
post Apr 12 2020, 00:47:20
Post #5

Литр
*
Group: Подсевший
Posts: 79
Releases: 0
From: Россия
On Forums: 7 years 7 months
Thanks: 3 time(s)
Russian Federation


Крутая работа !
Go to the top of the page
  Insert nick Quick quote
+Quote Post
post Apr 12 2020, 18:55:09
Post #6

кручу наждак
**************
Group: Металариец
Posts: 5,057
Releases: 104
From: Самара
On Forums: 11 years 2 months
Thanks: 4083 time(s)
Russian Federation


Старорежимные клавиши хороши, жаль что не в каждом треке они есть.
Go to the top of the page
  Insert nick Quick quote
+Quote Post
post Apr 13 2020, 16:38:08
Post #7

I hate you all
**************
Group: Металариец
Posts: 2,630
Releases: 82
From: Ukraine
On Forums: 14 years 2 months
Thanks: 6689 time(s)
Ukraine


Mirror pls !
Go to the top of the page
  Insert nick Quick quote
+Quote Post
post Apr 13 2020, 16:52:24
Post #8

Правь статус, ####!111
**************
Group: Металариец
Posts: 49,049
Releases: 851
On Forums: 12 years 2 months
Thanks: 44129 time(s)
Russian Federation


@320

Register


Register


Go to the top of the page
  Insert nick Quick quote
+Quote Post
post Apr 13 2020, 17:16:11
Post #9

Наливай!
**************
Group: Металариец
Posts: 6,028
Releases: 27
From: Москва-Бибирево
On Forums: 13 years 4 months
Thanks: 3120 time(s)
Russian Federation


Go to the top of the page
  Insert nick Quick quote
+Quote Post
post Apr 13 2020, 18:10:35
Post #10

While Waiting the Worms
**********
Group: Металариец
Posts: 1,339
Releases: 0
On Forums: 7 years 7 months
Thanks: 2028 time(s)
Unknown


Ниочём.


Thanks:
(1) ent404,
Go to the top of the page
  Insert nick Quick quote
+Quote Post
post Apr 13 2020, 18:43:08
Post #11

Маньяк
**********
Group: Металариец
Posts: 1,299
Releases: 1
From: Беларусь
On Forums: 13 years 6 months
Thanks: 549 time(s)
Russian Federation


ЦИТАТА(Sangreal @ Apr 13 2020, 20:10:35) *
Ниочём.

Твой комментарий


Thanks:
(1) smysl,
Go to the top of the page
  Insert nick Quick quote
+Quote Post
post Apr 15 2020, 15:26:19
Post #12

While Waiting the Worms
**********
Group: Металариец
Posts: 1,339
Releases: 0
On Forums: 7 years 7 months
Thanks: 2028 time(s)
Unknown


ЦИТАТА(Moonshtook @ Apr 13 2020, 22:43:08) *


Я бы с удовольствием сразился с тобой в интеллектуальной дуэли. Но ты, как вижу, безоружен.


Thanks:
(1) DarkHorde,
Go to the top of the page
  Insert nick Quick quote
+Quote Post

Reply to this topicStart new topic
1 User(s) are reading this topic (1 Guests and 0 Anonymous Users)
0 Members:

 



- Lo-Fi Version Support form
Copyrights and abuse reports form
Time is now: 5th August 2021 - 17:54:21