Welcome Guest ( Log In | Register )

> Ebola & No Point In Living - Regions Of Depression [split] (2020), Depressive Black Metal | Post-Black Metal (D)(D)
post Apr 12 2020, 23:33:08
Post #1

Правь статус, ####!616
**************
Group: Металариец
Posts: 7,182
Releases: 5615
From: 55°35’N 38°08’E
On Forums: 13 years 3 months
Thanks: 102340 time(s)
Unknown


(IMG:http://metalarea.org/images/audiocovers/2020_Apr/acov_tid336205_thumb.jpg)

*Artist: Ebola & No Point In Living
*Album: Regions Of Depression [split]
*Year: 2020
*Genre: Depressive Black Metal | Post-Black Metal
*Country: Japan (IMG:http://metalarea.org/forum/style_images/flags/Japan.png) | Japan (IMG:http://metalarea.org/forum/style_images/flags/Japan.png)
*Format: mp3@CBR320kbps
*Size: 99MB

Tracklist:
Ebola:
1.耶馬溪 06:41
2.内竈 01:38
3.Falling 07:25
No Point in Living:
4.Fragments 10:06
5.Graves 11:00
6.Room 302 07:00
******************************
Total playing time: 43:50



Technical info
(IMG:http://metalarea.org/images/spectrogram/2020_Apr/b8b9ab702a026f69d8858495cbc9270e.png)
Input File: 01 Ebola - Yabakei.mp3
Channels : 2
Sample Rate : 44100
Precision : 16-bit
Duration : 00:06:41.58 = 17709634 samples = 30118.4 CDDA sectors
File Size : 16.1M
Bit Rate : 321k
Sample Encoding: MPEG audio (layer I, II or III)
Comments :
Title=耶馬溪
Artist=Ebola
Album=Regions of Depression
Tracknumber=1
Year=2020
Genre=Black Metal



Register


Go to the top of the page
  Insert nick Quick quote
+Quote Post
 
Start new topic
Replies (1 - 2)
post Oct 13 2021, 19:07:59
Post #2

Пять Литров
*****
Group: Металариец
Posts: 413
Releases: 0
On Forums: 12 years 4 months
Thanks: 108 time(s)
Russian Federation


RE-UP! PLZ!!!
Go to the top of the page
  Insert nick Quick quote
+Quote Post
post Oct 13 2021, 19:12:51
Post #3

Правь статус, ####!616
**************
Group: Металариец
Posts: 7,182
Releases: 5615
From: 55°35’N 38°08’E
On Forums: 13 years 3 months
Thanks: 102340 time(s)
Unknown


Register


Register
Go to the top of the page
  Insert nick Quick quote
+Quote Post

Reply to this topicStart new topic
1 User(s) are reading this topic (1 Guests and 0 Anonymous Users)
0 Members:

 



- Lo-Fi Version Support form
Copyrights and abuse reports form
Time is now: 15th October 2021 - 21:43:32