Welcome Guest ( Log In | Register )

> И неформату есть предел.

Рэп/хип-хоп/шансон/поп удаляются. Для них есть свои порталы.

> Coven - Jinx (2013), Occult Rock (D)
post Apr 15 2020, 16:01:47
Post #1

Правь статус, ####!111
**************
Group: Металариец
Posts: 52,698
Releases: 967
On Forums: 13 years 8 months
Thanks: 49481 time(s)
Russian Federation


(IMG:http://metalarea.org/images/audiocovers/2020_Apr/acov_tid336311_thumb.jpg)

*Artist: Coven
*Album: Jinx
*Year: 2013
*Genre: Occult Rock
*Country: United States (IMG:http://metalarea.org/forum/style_images/flags/United%20States.png)
*Format: mp3@CBR320kbps
*Size: 101MB

Tracklist:
1. Prelude 01:18
2. Out Of Luck 05:04
3. To The Devil A Daughter 05:42
4. Danger / Ju Ju Goat 02:59
5. Wicked Woman '13 4:40
6. Epitath 03:40
7. WDMRS 05:31
8. Black Swan 04:19
9. Quick & The Dead 07:56
10. Ava Satanas 02:59
******************************
Total playing time: 44:08

(IMG:http://metalarea.org/images/youtube.png)

Technical info
(IMG:http://metalarea.org/images/spectrogram/2020_Apr/e7807a5067ae436611ec4f941a489191.png)
Input File: 02 Out of Luck.mp3
Channels : 2
Sample Rate : 44100
Precision : 16-bit
Duration : 00:05:04.16 = 13413588 samples = 22812.2 CDDA sectors
File Size : 12.2M
Bit Rate : 320k
Sample Encoding: MPEG audio (layer I, II or III)
Comments :
Title=Out of Luck
Artist=Coven
Album=Jinx
Tracknumber=02
Year=2013
Genre=Hard Rock



Register


Go to the top of the page
  Insert nick Quick quote
+Quote Post
 
Start new topic
Replies (1 - 1)
post Jan 25 2023, 22:26:38
Post #2

Group: Подсевший
Posts: 16
Releases: 0
From: Бања Лука
On Forums: 13 years 10 months
Thanks: 0 time(s)
Bosnia and Herzegovina


Перезалейте, пжаста!
Go to the top of the page
  Insert nick Quick quote
+Quote Post

Reply to this topicStart new topic
2 User(s) are reading this topic (2 Guests and 0 Anonymous Users)
0 Members:

 



- Lo-Fi Version Support form
Copyrights and abuse reports form
Time is now: 5th February 2023 - 18:39:12