Welcome Guest ( Log In | Register )

> Halén - Idleness (2020), Power Metal
post Apr 17 2020, 07:48:08
Post #1

Правь статус, ####!111
**************
Group: Металариец
Posts: 6,580
Releases: 6047
From: Lithuania
On Forums: 17 years 4 months
Thanks: 46905 time(s)
Lithuania


(IMG:https://metalarea.org/images/audiocovers/2020_Apr/acov_tid336398_thumb.png)

*Artist: Halén
*Album: Idleness
*Year: 2020
*Genre: Power Metal
*Country: Sweden (IMG:https://metalarea.org/forum/style_images/flags/Sweden.png)
*Format: mp3@CBR320kbps
*Size: 92MB

Tracklist:
1. There´s no Use 04:48
2. Daydream 03:39
3. Tears 04:49
4. Empire 05:19
5. Labyrinth 05:02
6. Dreams 04:44
7. AnyMore 02:47
8. Wonders 04:19
9. Blown Away 04:28
******************************
Total playing time: 39:55




Technical info
(IMG:https://metalarea.org/images/spectrogram/2020_Apr/9dd8c536e92e3210de11a6f595cc8aca.png)
Input File: 02. Daydream.mp3
Channels : 2
Sample Rate : 44100
Precision : 16-bit
Duration : 00:03:39.37 = 9673997 samples = 16452.4 CDDA sectors
File Size : 8.83M
Bit Rate : 322k
Sample Encoding: MPEG audio (layer I, II or III)
Comments :
Title=Daydream
Artist=Halén
Album=Idleness
Tracknumber=2/9
Year=2020
Genre=17
Discnumber=1/1



Register


Go to the top of the page
  Insert nick Quick quote
+Quote Post
 
Start new topic
Replies (1 - 4)
post Apr 18 2020, 03:23:37
Post #2

Два Литра
**
Group: Завсегдатай
Posts: 160
Releases: 0
On Forums: 16 years 2 months
Thanks: 20 time(s)
Russian Federation


https://www.youtube.com/watch?v=tTwR6raWRkg
Go to the top of the page
  Insert nick Quick quote
+Quote Post
post Apr 18 2020, 08:09:34
Post #3

Тридцать три года на борту "тяжёлого" крейсера
**************
Group: Металариец
Posts: 3,111
Releases: 0
From: Питер
On Forums: 16 years 8 months
Thanks: 985 time(s)
Russian Federation


Stratovarius 90-х, усердно косят, как вокалом так и музыкой. Ну, может кому сейчас такое и нужно, учитывая практически полное опустошение в жанре
Go to the top of the page
  Insert nick Quick quote
+Quote Post
post Apr 26 2020, 20:21:17
Post #4

Три Литра
***
Group: Завсегдатай
Posts: 247
Releases: 0
From: Odessa
On Forums: 16 years 1 month
Thanks: 53 time(s)
Ukraine


ЦИТАТА(sadmannn @ Apr 18 2020, 10:09:34) *
Stratovarius 90-х, усердно косят, как вокалом так и музыкой. Ну, может кому сейчас такое и нужно, учитывая практически полное опустошение в жанре


что толку в таком копировании, если нет материала как в шедевральном "Episode" (1996), так себе, обычные подражатели.
Я считаю что нет музыки для "тогда" и для "сейчас", музыка либо качественная, либо нет, первую будут слушать поколениями, а о второй быстро забудут.


Thanks:
(1) zauber1,
Go to the top of the page
  Insert nick Quick quote
+Quote Post
post May 2 2020, 04:19:59
Post #5

Group: Дух
Posts: 2
Releases: 0
From: Brazil
On Forums: 3 years 9 months
Thanks: 0 time(s)
Brazil


Great singer from Sweden!
Go to the top of the page
  Insert nick Quick quote
+Quote Post

Reply to this topicStart new topic
2 User(s) are reading this topic (2 Guests and 0 Anonymous Users)
0 Members:

 



- Lo-Fi Version Support form
Copyrights and abuse reports form
Time is now: 22nd February 2024 - 15:56:45