Welcome Guest ( Log In | Register )

> Hellgarden - Making Noise, Living Fast (2020), Thrash Metal
post Apr 19 2020, 20:33:06
Post #1

Все люди - черви.
**********
Group: Металариец
Posts: 1,203
Releases: 155
From: Пхёнъян, Северная Корея
On Forums: 8 years 6 months
Thanks: 4766 time(s)
North Korea


(IMG:https://metalarea.org/images/audiocovers/2020_Apr/acov_tid336529_thumb.jpg)

*Artist: Hellgarden
*Album: Making Noise, Living Fast
*Year: 2020
*Genre: Thrash Metal
*Country: Brazil (IMG:https://metalarea.org/forum/style_images/flags/Brazil.png)
*Format: mp3@CBR320kbps
*Size: 79MB

Tracklist:
01. Spit on Hypocrisy
02. Evolution or Destruction
03. Learned to Play Dirty
04. Fuck the Consequences
05. Brainwash
06. Making Noise, Living Fast
07. Believe in Yourself or Die
08. Possessed by Noise
******************************
Total playing time: 34:30



Technical info
(IMG:https://metalarea.org/images/spectrogram/2020_Apr/dc5557004f359903e29cd64b886bdc4f.png)
Input File: 3 - Learned to Play Dirty.mp3
Channels : 2
Sample Rate : 44100
Precision : 16-bit
Duration : 00:04:38.33 = 12274221 samples = 20874.5 CDDA sectors
File Size : 11.2M
Bit Rate : 321k
Sample Encoding: MPEG audio (layer I, II or III)
Comments :
Title=Learned to Play Dirty
Artist=HellgardeN
Album=Making Noise, Living Fast
Tracknumber=3
Year=2020
Genre=Metal
Discnumber=1



Register


Go to the top of the page
  Insert nick Quick quote
+Quote Post
 
Start new topic
Replies (1 - 2)
post Apr 20 2020, 17:53:42
Post #2

Четыре Литра
****
Group: Металариец
Posts: 376
Releases: 0
From: Kyiv
On Forums: 9 years 3 months
Thanks: 154 time(s)
Ukraine


Ни о чем. Такой трэш нам не нужен.


Thanks:
(1) WX419,
Go to the top of the page
  Insert nick Quick quote
+Quote Post
post Apr 20 2020, 19:00:49
Post #3

Правь статус, ####!111
**************
Group: Металариец
Posts: 26,658
Releases: 19228
From: Г.Харьков
On Forums: 9 years 2 months
Thanks: 384076 time(s)
Unknown


ЦИТАТА(kessler @ 20th April 2020 - 17:53:42) *
Такой трэш нам не нужен

так и не треш вовсе-hardcore/groove/thrash и именно в такой очередности (IMG:style_emoticons/default/bye.gif)
Go to the top of the page
  Insert nick Quick quote
+Quote Post

Reply to this topicStart new topic
2 User(s) are reading this topic (2 Guests and 0 Anonymous Users)
0 Members:

 



- Lo-Fi Version Support form
Copyrights and abuse reports form
Time is now: 25th July 2021 - 03:26:21