Welcome Guest ( Log In | Register )

 
Reply to this topicStart new topic
> Thanatos - Live Ecstasy Rotterdam 1991 [live] (2020), Death/Thrash Metal (D)
post Apr 20 2020, 21:47:32
Post #1

Правь статус, ####!111
**************
Group: Металариец
Posts: 3,942
Releases: 14
From: Москва и МО
On Forums: 14 years 4 days
Thanks: 1152 time(s)
Russian Federation


(IMG:http://metalarea.org/images/audiocovers/2020_Apr/acov_tid336593_thumb.jpg)

*Artist: Thanatos
*Album: Live Ecstasy Rotterdam 1991 [live]
*Year: 2020
*Genre: Death/Thrash Metal
*Country: Netherlands (IMG:http://metalarea.org/forum/style_images/flags/Netherlands.png)
*Format: mp3@CBR320kbps
*Size: 98MB

Tracklist:
1. Intro 01:51
2. Dawn of the Dead / And Jesus Wept 09:11
3. Outward of the Inward 03:46
4. In Praise of Lust 05:00
5. Bodily Dismemberment 02:54
6. Realm of Ecstasy 03:57
7. Rebirth 03:44
8. Tied Up Sliced Up 03:54
9. War 05:42
******************************
Total playing time: 39:59



Extended info
Найдено на просторах интернета.
Вполне официальное издание с качеством записи несколько ниже среднего.
For fans (only?)


Technical info
(IMG:http://metalarea.org/images/spectrogram/2020_Apr/5578b3e546bfbd056a912c06bf555c9b.png)
Input File: Thanatos - Live Ecstasy Rotterdam 1991 - 05 Bodily Dismemberment.mp3
Channels : 2
Sample Rate : 44100
Precision : 16-bit
Duration : 00:02:54.22 = 7683102 samples = 13066.5 CDDA sectors
File Size : 7.17M
Bit Rate : 329k
Sample Encoding: MPEG audio (layer I, II or III)
Comments :
Title=Bodily Dismemberment
Artist=Thanatos
Album=Live Ecstasy Rotterdam 1991
Tracknumber=5
Year=1991



Register


Go to the top of the page
  Insert nick Quick quote
+Quote Post

Reply to this topicStart new topic
2 User(s) are reading this topic (2 Guests and 0 Anonymous Users)
0 Members:

 



- Lo-Fi Version Support form
Copyrights and abuse reports form
Time is now: 6th July 2020 - 06:29:23