Welcome Guest ( Log In | Register )

> Doom Rot - Eternal Void (2020), Melodic Death Metal (D4)
post Apr 25 2020, 03:33:43
Post #1

Правь статус, ####!111
**************
Group: Металариец
Posts: 28,587
Releases: 20922
From: Г.Харьков
On Forums: 9 years 8 months
Thanks: 427835 time(s)
Unknown


(IMG:http://metalarea.org/images/audiocovers/2020_Apr/acov_tid336813_thumb.jpg)

*Artist: Doom Rot
*Album: Eternal Void
*Year: 2020
*Genre: Melodic Death Metal
*Country: Russian Federation (IMG:http://metalarea.org/forum/style_images/flags/Russian%20Federation.png)
*Format: mp3@CBR320kbps
*Size: 98MB

Tracklist:
1. What You Deserve 03:36
2. Forgotten World 04:38
3. Continuum 03:57
4. Back to Origins 04:35
5. Deception Island 04:23
6. In Haze 04:10
7. The Dying Sun 04:18
8. Vulture's Eyes 03:52
9. Worship 04:37
10. Escape 04:51
******************************
Total playing time: 42:57


Preview 2

Extended info
Andrew Kazakov Everything


Technical info
(IMG:http://metalarea.org/images/spectrogram/2020_Apr/13448d13520efb42531a8c96a5d4e83b.png)
Input File: 04 - Back To Origins.mp3
Channels : 2
Sample Rate : 44100
Precision : 16-bit
Duration : 00:04:35.50 = 12149550 samples = 20662.5 CDDA sectors
File Size : 11.0M
Bit Rate : 320k
Sample Encoding: MPEG audio (layer I, II or III)
Comments :
Title=Back To Origins
Artist=Doom Rot
Album=Eternal Void
Tracknumber=4
Year=2020
Genre=Death Metal



Register


Go to the top of the page
  Insert nick Quick quote
+Quote Post
 
Start new topic
Replies (1 - 6)
post Apr 25 2020, 08:29:34
Post #2

Мегаманьяк
***********
Group: Металариец
Posts: 1,526
Releases: 0
From: Russian Federation - St.Petersburg
On Forums: 12 years 10 months
Thanks: 418 time(s)
Russian Federation


Классная вещь, гитарки в кайф! (IMG:style_emoticons/default/smile4.gif)


Thanks:
(1) Andrew,
Go to the top of the page
  Insert nick Quick quote
+Quote Post
post Apr 25 2020, 13:12:45
Post #3

Override the Overture
*******
Group: Металариец
Posts: 736
Releases: 0
From: Moscow
On Forums: 14 years 1 week
Thanks: 181 time(s)
Russian Federation


Погибельный Рот (IMG:style_emoticons/default/1488.gif)
Go to the top of the page
  Insert nick Quick quote
+Quote Post
post Apr 26 2020, 09:44:46
Post #4

Тридцать лет на борту "Тяжёлого" крейсера
**************
Group: Металариец
Posts: 2,783
Releases: 0
From: Питер
On Forums: 14 years 7 months
Thanks: 874 time(s)
Russian Federation


У этого товарища очень неплохой материал из под пера(грифа) выходит, довольно олдскульный, простоватый, но местами цепляет
Наш ответ комраду Tuomas Saukkonen
Go to the top of the page
  Insert nick Quick quote
+Quote Post
post Apr 28 2020, 17:28:18
Post #5

MDM-Thrash Metal
**************
Group: Металариец
Posts: 10,788
Releases: 1359
From: Одесса
On Forums: 14 years 5 months
Thanks: 32793 time(s)
Ukraine


Очень классный материал, я оценил потенциал еще по прошлогодним синглам, вот теперь наконец полноформатник - Тезка, так держать!
Go to the top of the page
  Insert nick Quick quote
+Quote Post
post Apr 28 2020, 17:38:10
Post #6

Ёлд ХеллоВяйне
Group Icon
Group: V.I.P
Posts: 32,558
Releases: 144
From: Питер
On Forums: 15 years 2 months
Thanks: 20440 time(s)
Russian Federation


Третьесорт©.
Go to the top of the page
  Insert nick Quick quote
+Quote Post
post May 31 2020, 07:45:57
Post #7

Ъ
**************
Group: Металариец
Posts: 10,905
Releases: 9
On Forums: 13 years 2 weeks
Thanks: 2202 time(s)
Sweden


Третьесорт.

ЦИТАТА(sadmannn @ Apr 26 2020, 15:44:46) *
Наш ответ комраду Tuomas Saukkonen


По моему тут на пару голов слабее композиторство, никаким ответом и не пахнет.
Go to the top of the page
  Insert nick Quick quote
+Quote Post

Reply to this topicStart new topic
2 User(s) are reading this topic (2 Guests and 0 Anonymous Users)
0 Members:

 



- Lo-Fi Version Support form
Copyrights and abuse reports form
Time is now: 24th January 2022 - 14:41:07